<?xml version="1.0" standalone="no"?>
<!DOCTYPE svg PUBLIC "-//W3C//DTD SVG 1.1//EN" "http://www.w3.org/Graphics/SVG/1.1/DTD/svg11.dtd">
<svg xmlns="http://www.w3.org/2000/svg">
<defs>
<font id="icofont" horiz-adv-x="1000" >
<font-face font-family="IcoFont" font-weight="400" font-style="Regular" units-per-em="1000" ascent="850" descent="-150" />
<missing-glyph horiz-adv-x="1000" />
<glyph glyph-name="eye-alt" horiz-adv-x="1000" unicode="&#xef21;" d="M473 684h54c3-1 6-2 9-2 39-3 77-12 113-26 130-47 235-128 322-234 39-48 38-97-1-145-54-67-118-123-190-169-59-38-122-67-192-82-20-4-41-7-61-10h-54c-3 1-7 2-10 2-33 3-66 10-98 21-137 46-247 131-338 241-15 18-25 39-27 62-2 34 12 61 33 86 55 66 119 121 192 167 61 38 125 67 196 81 17 3 35 5 52 8z m-182-334c0-115 94-208 208-209 115 0 209 94 209 209 0 114-94 208-208 208-115 0-209-93-209-208z m248 118c-41-35-51-72-26-107 24-36 61-40 111-13 5-42-31-96-77-114-53-22-114-4-147 41-35 46-34 108 2 152 33 42 94 60 137 41z" />
<glyph glyph-name="envato" horiz-adv-x="1000" unicode="&#xed34;" d="M169 77l268 591c-310-126-395-325-268-591z m563 646c-203-218-378-453-502-716 13-15 28-29 45-40 110-76 302-76 425 22 136 116 179 372 186 682 1 25 1 50 1 76-3 65-102 48-155-24z" />
<glyph glyph-name="copyright" horiz-adv-x="1000" unicode="&#xeef3;" d="M500-88c-65 0-124 12-178 34-54 22-100 53-138 92-38 39-67 85-88 138-21 53-32 111-32 174 0 62 11 120 32 174s51 99 88 138c39 39 84 70 138 92 54 22 113 34 178 34s125-11 178-33c54-22 100-53 138-92 38-39 67-86 89-139 21-53 31-111 31-174 0-63-10-121-31-174-22-53-51-99-89-138-38-39-84-70-138-92-53-22-113-34-178-34z m0 88c53 0 101 9 144 27 42 18 78 42 107 74 30 31 52 68 68 111 16 43 23 89 23 138s-8 96-23 138c-16 43-38 80-68 111-29 32-65 56-107 75-43 18-90 27-144 27s-101-9-143-27c-43-19-79-43-108-75-29-31-52-68-67-111-16-42-24-88-24-138s8-95 24-138c15-43 38-80 67-111 30-32 65-56 108-74 42-18 90-27 143-27z m121 237c8-12 14-28 18-47 5-19 7-38 7-59-23-8-44-14-64-17-20-3-41-4-64-4-37 0-70 6-98 19-28 13-52 31-70 52s-33 47-43 77c-10 29-15 60-15 93 0 32 5 63 15 92 9 30 24 56 43 78 18 22 42 40 69 53 27 14 59 20 94 20 27 0 49-1 67-4 17-3 37-9 60-18 0-16-1-33-4-53s-9-37-17-53c-19 7-34 11-47 13-13 2-27 3-42 3-35 0-62-12-80-34-19-22-29-55-29-97 0-45 10-78 30-99 20-21 46-32 78-32 18 0 33 1 45 3 12 2 28 6 47 14z" />
<glyph glyph-name="email" horiz-adv-x="1000" unicode="&#xef12;" d="M520 496c-6-1-11-3-16-6-5-3-9-7-12-13s-5-10-6-17c-1-6-2-13-1-20 1-8 3-14 8-18 4-3 9-5 15-4 4 0 7 1 10 1s6 2 9 4l6 73c-3 0-5 0-7 0-1 0-3 0-6 0z m-451 62c139-139 278-277 416-416 12-12 17-11 29 0l393 394c10 9 23 17 28 29 5 12 1 27 1 41 1 28-13 41-41 41h-792c-27 0-40-14-40-40 0-11 0-22 0-33-1-7 2-11 6-16z m318-81c5 19 13 35 24 51 12 15 27 28 46 39 20 11 43 18 70 21 15 1 29 0 42-2 14-3 26-8 36-15 11-7 19-17 26-28 7-12 11-26 13-43 1-12 0-24-2-36-3-12-8-23-14-33-6-10-14-18-24-25-9-7-20-11-33-12-14-2-25 1-33 8-5-4-11-7-17-10-7-3-14-4-24-5-6-1-12-1-18 1-5 1-10 3-15 7-4 4-8 8-11 14-3 6-5 13-6 21-1 13 0 25 4 37 3 11 8 21 15 30 6 8 15 15 24 21 10 5 20 8 31 10 9 0 18 1 26 0 9 0 17-2 24-4l-9-100c2-1 6-1 10-1 7 1 13 3 19 8 5 5 9 11 12 18 3 7 5 15 6 23 2 9 2 17 1 25-2 22-11 38-25 49-15 10-34 14-59 12-19-2-35-7-50-14-14-8-25-18-34-30s-16-25-20-40c-4-15-5-30-4-45 1-14 5-25 10-35 5-9 11-17 19-22 8-6 17-10 26-12 10-2 21-2 31-1 10 1 20 2 28 4 8 2 16 5 23 9 2-5 4-9 6-13 2-5 4-9 5-13-3-2-7-4-12-6-5-2-10-4-15-5-6-2-12-3-18-4-6-1-12-2-18-2-15-2-30-1-43 2-14 3-26 8-37 16-11 8-20 18-27 31-7 13-12 28-13 47-2 17 0 34 4 52z m352-186c-2 2-5 4-9 8-2-3-4-6-6-8-60-60-120-120-180-180-28-28-61-28-88-1-60 60-120 120-180 180-3 3-5 6-7 9-3-2-4-3-5-4-65-65-131-131-196-196-6-6-6-12-4-19 4-18 18-27 38-27h794c3 0 6 0 8 0 13 2 23 8 29 20 5 12 6 18-5 30-63 62-126 125-189 188z m-676-133l170 170c-56 58-113 115-170 172v-342z m873 1v341l-170-170 170-171z" />
<glyph glyph-name="phone" horiz-adv-x="1000" unicode="&#xefbb;" d="M391 497c-121-70 63-414 195-338l122-211c-56-32-103-53-167-16-179 102-376 443-370 646 2 71 43 99 98 130 23-40 98-171 122-211z m50 5c-13-7-30-3-37 10l-115 200c-8 13-3 29 10 37l60 35c13 7 30 3 38-10l115-199c7-13 3-30-10-38l-61-35z m315-544c-13-8-30-3-38 10l-115 199c-7 13-3 30 10 38l61 34c13 8 29 4 37-10l115-199c8-13 3-30-10-37l-60-35z" />
<glyph glyph-name="world" horiz-adv-x="1000" unicode="&#xf02c;" d="M500-88c241 0 438 197 438 438 0 183-113 340-273 405-13 6-26 10-40 14-40 12-81 19-125 19-241 0-437-197-437-438s196-438 437-438z m199 781l3 0 1 0c74-43 132-110 166-190-4 3-8 5-13 5-2 0-4 0-5 1-6 0-9 3-11 8-1 3-1 5-2 7 0 1-1 2-1 3-1-1-1-1-2-1 0-1-1-2-2-3-1-1-2-2-3-4-3-3-5-3-8 1 0 1-1 2-1 3l-2 4c0 2-1 4-2 6-2 4-3 4-6 1l-1-2c-1-1-2-2-3-2-3-3-6-3-10-1l-1 2c-2 1-3 3-3 5 0 3 0 6 0 8 0 2-1 4-1 5-1 1-2 2-3 1s-2-2-4-3c-1 1-2 1-4 2-6 3-12 5-18 8-2 1-3 2-5 4-3-11-4-21-5-32-1 0-3 0-4-1-5-1-10-2-15-3-8-3-15-1-21 4-5 4-9 8-12 13-3 7-7 14-11 20 0 1-1 2-1 3 2 2 4 2 6 4 9 5 18 8 28 7 2 0 3 0 4 1 0 0 1 1 2 1 4 2 8 4 11 7 4 4 6 8 9 11 1 2 3 3 4 5-2 3-3 7-4 10-2 2-2 4-1 7 0 3 1 6 1 10 0 1 1 2-1 3-4 1-10 2-15 2-2 0-4 1-5 3-1 3-3 6-4 9-2 2-3 2-5 3-3 0-6 0-9 1-2 0-4 1-5 2-3 3-4 6-5 9-1 5-2 9-2 14 0 6 0 12 1 19z m-19-45c-1 3-1 4 1 5 2 2 5 3 7 1 2-1 3-2 4-3 2-3 5-6 8-7 5-2 8-6 11-9 5-7 9-14 11-23 0 0 0-1 0-2-3-3-7-5-10-7-2-1-3-2-4-2-9-2-14 2-16 9-1 5-2 11-3 16-1 0-2 0-2 0-4-2-7-3-10-5-3 4-4 7-6 11 3 3 7 5 10 8 1 3-1 5-1 8z m-4-166c3 1 5 2 7 4 4 5 9 11 13 16 1 2 3 3 5 4 7 2 14 4 21 6 6 2 12 3 18 3 11 1 23-1 33-5 2-1 4-1 5-1 7 1 13 1 20 0 6-1 11-3 16-7 9-7 18-14 27-21 5-4 5-4 11-3 9 0 18 0 26-2 14-40 21-82 21-126 0-135-68-255-171-327 1 1 1 2 1 4 1 2 2 4 3 7 3 7 6 14 9 21l11 23c2 5 2 10 1 15-1 6-2 12-3 17-1 6-2 12 1 18 3 11 9 21 17 29 3 2 5 5 7 8 3 4 6 8 7 12 3 6 3 12 2 18-1 4-2 9-4 13-1 4-3 7-4 11-2 6-2 13 0 19 1 4 2 7 4 11l4 12c2 5 3 11 3 16-1 4-1 8-2 12-1 3-3 4-7 3-1-1-2-1-4-2-4-2-7-1-9 2-2 2-4 4-7 4-2 1-4 2-7 2-8 1-16 0-24 0-6-1-12-1-18-1-1 0-3 1-5 1-5 1-9 2-14 5-8 3-15 8-22 14-11 9-21 19-31 29-2 1-2 3-3 4-1 3-1 5-1 7-1 11 0 21 2 31 2 11 5 22 8 32 2 6 3 12 3 19 0 2 0 5-2 7-1 2-1 4 0 6 1 3 3 7 5 10 6 10 16 17 27 20z m-80 210c-3-3-4-6-5-9 0-1-1-3-1-4-7 1-12 2-18 3-3 1-5 2-7 4-1 0-2 1-3 2-3 3-2 7 2 9 7 3 15 5 22 8 2 1 2 1 3 0 3-1 5-3 7-5 3-2 3-5 0-8z m-93 37c3 6 5 13 8 20 28-1 56-4 82-11-4-6-7-11-11-17-5-1-10-2-16-3-2 0-3-1-4-2l-17-20c-5-6-10-12-15-18 0-1-1-1-2-2-4 1-6 4-9 6-5 4-8 10-10 15-4 8-6 16-6 25-1 2-1 4 0 7z m-316-247c1 6 2 11 2 17-1 1-3 1-4 2-7 3-13 6-19 11-4 3-7 6-9 10-3 5-5 11-4 17 0 3 1 7 1 10 69 119 197 199 344 200l3-8c1 0 1-1 1-2-5-4-9-7-14-11-4-4-8-8-13-11-2 4-5 7-9 9-6 5-4 4-11 4-5-1-10-1-15-3-2-1-5-1-8-1-2 0-4 1-5 3-1 0-1 1-1 1-1 2-3 2-5 1-1 0-3-1-4-1-2-2-4-3-6-5-2-2-5-4-7-6l-13-8c-1-1-2-2-2-4-1-3-2-5-2-8 0-4 0-8 1-12 2-5 6-7 11-5 6 2 11 5 16 9 3 3 6 6 7 10 1 0 1 1 1 2 1 1 2 1 4 1 1-1 2-1 4-2 3-1 6-1 9 0 1 1 3 2 4 3 2 1 3 3 4 4 2 2 4 3 7 5 4 1 8 1 11-4 2-3 4-6 8-8 1-1 2-2 3-3 2-2 3-4 2-6 0-3-2-6-3-8-2-2-3-4-4-6-1-2-1-3-1-4 0-1 1-2 2-2 2 0 3 1 5 1 1 0 2 1 3 1 0-9-2-18-6-26-1-2-2-3-3-4-4-3-8-5-12-4-4 1-7 2-9 5-5 4-10 4-15-1-1-2-2-3-3-5-1-2-3-3-5-4-9-2-18-3-27-2-1 0-3 0-4 0-6-2-12-4-18-5-2-1-4-2-6-3-4-3-8-5-13-6-4-1-9-2-13 1-14-12-29-20-46-26-1-6-2-12-3-19l-4-22c0-2-1-3-3-3-2-1-4 0-5 1-2 2-3 4-4 5-2 5-4 10-4 16-1 7-5 12-11 15-9 4-18 6-27 4-15-2-28-9-38-21-9-9-9-9-12-22 0-5-1-10 1-14 1-5 5-8 9-9 3-1 6-1 8 0l9 1c0 1 1 1 2 0 2 0 4-2 6-4 1-2 2-4 1-7-1-2-3-4-4-6-3-2-5-3-7-5-1-1-2-1-3-2-4-4-4-8 0-11 1-1 2-1 3-2 1-1 2-1 3-2-1-2-1-5-1-8-1-6-1-13 0-20 0-6 3-11 8-15 3-3 7-5 11-7 2-1 4-2 6-2 7-2 13-1 18 4 2 3 4 5 6 8 3 4 7 6 13 5 2 0 5-2 7-4 3-2 6-4 9-5 4-2 8-4 12-6 2-1 4-2 5-2 12-3 22-9 30-19 2-2 3-3 6-4 11-4 21-9 30-17 12-10 21-21 25-36 1-3 3-6 5-9 3-2 5-5 7-8 2-4 4-8 7-12 0-1 1-2 1-3 3-1 4-1 6-1 13-3 25-8 36-15 6-4 11-8 15-14 2-1 2-3 2-5 1-17-6-31-20-41-2-1-3-3-4-5-4-10-7-20-11-30-1-2-2-4-3-5l-15-22c-2-2-4-4-6-5-2-1-4-2-6-3-7-3-14-6-22-7-2-1-4-2-5-3-5-7-10-13-15-20-1-1-1-2-2-2-5-9-11-18-16-26-2-2-3-4-5-5-8-6-16-11-25-17-2-1-4-3-6-5-4-4-8-8-12-12-1-1-2-2-3-3l-11-25c-1-2-1-4-1-5 3-14 5-28 8-42 0-1 0-3 0-4-1 0-2 0-3 0-7 4-14 8-20 12-10 10-18 21-25 32-1 1-1 3-1 4-2 11-3 22-5 33 0 1 0 2-1 3-2 3-3 6-3 9-2 8-1 15 0 22l4 27c0 1 0 2-1 3-2 3-2 6-3 10 0 7 1 13 3 20 1 2 1 4 1 7l4 23c0 3 1 7 1 10-1 0-1 1-2 1-4 4-7 9-8 14-1 4-1 8 0 12 1 3 1 6 2 9l-4 2c-7 5-13 10-18 17-5 6-11 12-16 19-2 3-3 6-5 8-2 5-4 10-2 16 0 1 0 2-1 3-3 9-3 18-3 27 1 7 3 12 6 18 2 3 4 6 7 10 4 5 8 11 12 17 4 5 6 11 7 18 1 3 1 6 1 9 0 5-2 9-6 12-5 3-9 6-13 9-3 2-4 4-4 7-2 6-3 12-5 18 0 2-1 4-3 5-3 3-5 5-8 7l-3 3z m117 13c0 1 1 1 2 1l9 5 7 3c1 0 2 0 2 1 3-2 5-3 8-5 2-2 5-2 8-3-1-4-1-7-3-10-2 0-3 0-4 1-5 2-10 3-16 3l-6 0c-2 0-4 0-7 0-1 0-2 0-2 2-1 1 1 2 2 2z m-11 21c-9 1-18 3-27 5-3 0-5 0-7 3 2 6 6 9 12 10 5 1 9 0 12-3 5-5 12-7 18-7 4 0 8-1 11-2 1 0 3-1 4-2 0 0 0-1 0-2 0-1-1-2-1-2-3 0-5-1-8-1-1 0-2 0-4 0-3 0-7 1-10 1z" />
<glyph glyph-name="money" horiz-adv-x="1000" unicode="&#xef9d;" d="M822 696l-115-107h-414l-115 107s57 80 151 90c93 10 125-46 171-48 46 2 78 58 170 48 95-10 152-90 152-90z m-306-514v-80c12 2 22 6 30 14 7 8 11 17 11 27 0 9-3 17-10 24-6 6-17 12-31 15z m-68 104c0-8 3-15 8-21 6-6 13-11 24-15v72c-9-3-17-8-23-14-6-7-9-14-9-22z m444-278s-26-96-140-96h-504c-115 0-140 96-140 96-75 332 154 512 154 512h476s229-180 154-512z m-275 142c0 23-7 41-21 55-14 14-41 26-80 35v81c16-6 25-17 29-33l62 7c-4 20-14 37-29 49-15 13-36 20-62 23v20h-36v-20c-28-3-50-12-67-27-17-15-26-34-26-57 0-22 8-41 23-57 15-16 38-27 70-35v-87c-8 4-17 10-24 18-7 8-12 17-14 28l-64-5c4-28 16-49 33-64 18-14 41-23 69-26v-38h36v39c32 4 57 14 74 31 18 18 27 39 27 63z" />
<glyph glyph-name="align-left" horiz-adv-x="1000" unicode="&#xede0;" d="M845 314h-810c-1 0-3 0-4 0-17 0-31-16-31-35 0-24 0-48 0-73 0-8 3-15 8-22 7-10 16-13 28-13 269 0 539 0 808 0 2 0 4 0 5 0 7 0 14 3 19 8 6 6 9 13 12 21v85c-1 0-1 0-1 1-6 20-16 28-34 28z m139 423c-5 3-11 5-17 6h-934c0 0-1-1-2-1-19-3-31-17-31-37 0-23 0-46 0-68 0-3 0-6 1-8 2-15 17-29 36-29 309 0 617 0 925 0h3c8 0 15 3 21 8 7 5 11 13 14 21v84c-3 10-8 18-16 24z m-968-352h384c7 0 13 0 19 0 4 0 8 3 10 9 3 6 5 13 6 21v84c0 0 0 0 0 1-3 20-8 28-17 28h-401c-1 0-1 0-2 0-9-1-15-16-15-35 0-24 0-48 0-72 0-2 0-5 0-7 2-17 8-29 16-29z m557-285h-548c-1 0-2 0-3 0-13-1-22-16-22-37 0-23 0-47 0-70 0-10 2-18 6-25 5-9 11-11 18-11 184 0 367 0 551 0 1 0 3 0 4 0 6 0 11 5 15 12 3 5 4 11 5 17v84c-5 24-11 30-26 30z" />
<glyph glyph-name="search" horiz-adv-x="1000" unicode="&#xed1b;" d="M991-96l-259 254c68 74 110 171 110 278 0 229-189 414-421 414-233 0-421-185-421-414 0-229 188-414 421-414 100 0 192 35 265 92l259-255c13-12 33-12 46 0 12 13 12 33 0 45z m-570 182c-197 0-356 157-356 350 0 193 159 350 356 350 196 0 356-157 356-350 0-193-160-350-356-350z" />
<glyph glyph-name="ui-love" horiz-adv-x="1000" unicode="&#xec65;" d="M500 597c-142 273-504 161-500-110 4-294 367-346 500-540v-1l0 1c133 194 496 246 500 540 4 271-358 383-500 110z" />
<glyph glyph-name="bucket" horiz-adv-x="1000" unicode="&#xeec4;" d="M85 603c30-208 61-415 90-623 3-16 8-21 23-20 47 0 94 0 141 0 151 0 302 0 453 0 15 0 26 0 28 20 3 38 12 75 17 113 6 36 11 72 17 108-37 2-71 1-104 6-108 19-188 78-247 169-9 13-16 24-34 29-28 7-41 37-36 70 4 28 26 46 55 47 43 1 67-33 59-80-2-8-1-19 3-26 70-108 164-166 296-153 15 2 20 7 22 20 12 83 26 166 38 249 5 29 9 58 13 86h-834c0-5-1-10 0-15z m852 100c-2 21-14 33-35 36-9 1-19 1-29 1-125 0-249 0-374 0-123 0-247 0-370 0-10 0-20 0-30-1-22-3-34-16-36-37-2-22 9-37 29-43 9-3 18-4 27-4 254 0 507 0 761 0 10 0 20 1 29 4 21 7 31 23 28 44z" />
<glyph glyph-name="basket" horiz-adv-x="1000" unicode="&#xeeb0;" d="M796 540l62 75c5 6 4 15-2 20l-47 39c-6 5-15 4-20-2l-109-132c-5-5-15-10-23-10h-314c-8 0-18 4-23 10l-109 132c-5 6-14 7-20 2l-47-39c-6-5-7-14-2-20l62-75c5-5 3-10-5-10h-122c-8 0-14-7-14-14v-100c0-8 6-14 14-14h63c7 0 15-6 16-14l54-352c1-7 8-14 16-14h548c8 0 15 7 17 14l53 352c2 8 9 14 17 14h63c7 0 14 6 14 14v100c0 7-7 14-14 14h-123c-7 0-10 5-5 10z m-451-432h-32c-8 0-15 6-16 14l-28 234c-1 8 4 14 12 14h65c7 0 14-6 14-14v-234c-1-8-7-14-15-14z m194 0h-65c-8 0-14 6-14 14v234c0 8 7 14 14 14h65c8 0 14-6 14-14v-234c0-8-6-14-14-14z m164 0h-32c-8 0-14 6-14 14v234c0 8 6 14 14 14h64c8 0 14-6 13-14l-29-234c-1-8-8-14-16-14z" />
<glyph glyph-name="shopping-cart" horiz-adv-x="1000" unicode="&#xefe7;" d="M796 229c46 117 93 233 139 350 1 2 2 4 2 7 2 4-6 7-17 7h-670c-11 0-22 8-24 19-6 31-13 62-19 93-2 10-13 19-24 19h-101c-11 0-19-9-19-20v-10c0-11 8-19 19-19h61c10 0 21-9 23-20 37-181 74-362 111-543 2-11-4-24-12-32-10-11-16-26-16-42 0-34 28-62 63-62 34 0 63 28 63 62 0 8-1 15-4 22-4 10-1 17 10 17h311c11 0 14-7 10-17-3-7-4-14-4-21-1-33 28-63 62-64 35 0 63 28 64 62 0 20-9 37-23 49-9 7-17 17-17 25s-9 14-20 14h-418c-11 0-22 9-24 19-4 18-7 34-11 52-2 10 1 19 7 19h10c148 0 297 0 446 0 12 0 17 3 22 14z" />
<glyph glyph-name="ui-search" horiz-adv-x="1000" unicode="&#xec82;" d="M982 61l-235 216c27 54 43 114 43 178 0 218-177 395-395 395-218 0-395-177-395-395 0-218 177-395 395-395 64 0 124 16 178 43l215-235c22-23 57-24 79-2l117 117c22 22 21 57-2 78z m-587 153c-133 0-241 108-241 241 0 133 108 241 241 241 133 0 241-108 241-241 0-133-108-241-241-241z" />
<glyph glyph-name="sale-discount" horiz-adv-x="1000" unicode="&#xefdd;" d="M926 373l-107 81 39 128c3 9 1 18-4 25-5 7-14 12-22 12l-135 2-44 127c-2 9-9 15-18 18-8 3-18 1-25-4l-110-77-110 77c-7 5-17 7-25 4-9-3-15-9-18-18l-44-127-134-2c-9 0-18-5-23-12-5-7-7-16-4-25l39-128-107-81c-7-6-11-14-11-23s4-18 11-23l107-81-39-128c-3-9-1-18 4-25 5-8 14-12 23-12l134-3 44-127c3-8 9-15 18-17 8-3 18-2 25 3l110 77 110-77c5-3 11-5 16-5 3 0 6 1 9 2 9 2 15 9 18 17l44 127 134 3c9 0 18 4 23 12 5 7 7 16 4 25l-39 128 107 81c7 5 12 14 12 23s-5 17-12 23z m-601-43c-11 6-21 13-28 23-7 9-13 19-16 31-4 12-6 24-6 37s2 25 6 37c3 12 9 23 16 32 7 10 17 17 28 23 12 5 25 8 41 8 15 0 28-3 40-8s21-13 28-23c8-9 13-19 17-32 3-12 5-24 5-37s-2-25-5-37c-4-12-9-22-17-31-7-10-17-17-28-23s-25-8-40-8c-16 0-29 3-41 8z m94-145c-11-2-21-3-31-3-11 0-22 1-34 3l227 331c10 2 21 3 33 3 9 0 20-1 32-3l-227-331z m300 56c-3-12-9-23-16-32-8-9-17-16-29-22-11-6-24-8-40-8-15 0-29 2-40 8-12 6-21 13-28 22-8 9-13 20-17 32-3 12-5 24-5 37s2 25 5 37c4 12 9 23 17 32 7 9 16 17 28 22 11 6 25 9 40 9 16 0 29-3 40-9 12-5 21-13 29-22 7-9 13-20 16-32 4-12 6-24 6-37 0-13-2-25-6-37z m-328 140c5 10 8 24 8 40 0 17-3 31-8 40s-14 15-25 15c-12 0-20-5-25-15-5-9-8-23-8-40 0-16 3-29 8-40 5-10 13-15 25-15s19 5 25 15z m243-48c-11 0-19-5-25-15-5-10-8-23-8-40 0-17 3-30 8-40s14-15 25-15c12 0 20 5 25 15 6 10 8 23 8 40 0 17-2 30-8 40-5 10-13 15-25 15z" />
<glyph glyph-name="question-circle" horiz-adv-x="1000" unicode="&#xefca;" d="M500 788c-242 0-437-196-437-438 0-242 195-438 437-438 242 0 438 196 438 438 0 242-196 438-438 438z m50-742c-21-3-42-5-62-5-21 0-42 2-63 5-3 21-5 42-5 63s2 41 5 63c21 3 42 5 62 5 21 0 42-2 63-5 4-22 5-43 5-63 0-21-1-42-5-63z m114 370c-10-20-23-36-38-49-14-14-29-24-44-32-15-9-28-15-37-19v-77c-20-3-39-5-58-5s-36 2-53 5v146c13 2 26 6 41 10 14 4 27 10 39 18 12 7 22 16 29 27 8 11 12 25 12 42 0 24-9 42-27 55-17 13-41 19-70 19-12 0-22 0-32-1-9-1-18-2-26-4-7-2-16-4-24-7-8-3-17-5-26-9-8 15-14 30-20 46-5 16-8 33-9 50 15 5 29 9 41 13 12 4 25 6 37 9 11 2 23 4 35 4 12 1 25 2 38 2 69 0 120-16 155-47 34-31 52-73 52-127 0-27-5-50-15-69z" />
<glyph glyph-name="ui-user" horiz-adv-x="1000" unicode="&#xec8e;" d="M859 47c-230 139-469 144-700 11-82-47-134-109-159-176h1000c-22 64-69 122-141 165z m-359 771c163 0 294-130 295-292 1-162-131-295-293-297-164-1-295 131-296 296 0 163 130 293 294 293z" />
<glyph glyph-name="live-support" horiz-adv-x="1000" unicode="&#xef77;" d="M875-72c1 35 0 69-6 104-7 47-28 82-74 100l-5 3c-33 15-68 24-103 34-20 6-41 12-61 18 0-1 0-1 0-2l0-6c2-22 3-45-6-67-24-58-60-107-111-143-7-5-11-5-17 0-52 36-88 85-112 143-5 11-6 23-7 35 0 14 0 27 2 40-1 0-2 0-3 0-40-12-80-24-120-37-30-9-58-21-83-40-10-8-18-17-23-29-8-19-13-38-16-59-2-13-3-26-5-39 0-21 0-42 0-63 0-6 1-8 7-8 248 1 496 1 744 1 0 5-1 10-1 15z m-674 464c0-4 0-9 0-13 1-22 18-41 43-45 17-2 34-2 51-1 4 0 10 5 13 9 3 3 2 8 2 12v31c17-42 48-74 87-97 12-8 25-14 40-18-77 71-70 191-46 239 3-1 4-4 5-6 40-59 97-91 168-97 25-3 51 0 75 7 6 1 8-1 7-6-1-6-1-12-2-18-7-45-24-84-58-116l-3-1c-18-4-28-18-26-33 2-15 17-27 37-27 17-1 34-1 51 0 10 0 20 2 26 9 6 6 12 6 20 7 26 1 51 5 75 14 55 20 88 54 93 105 3 28 1 57 1 86 0 22-9 32-36 38 0 4 1 10 0 14-2 5-5 11-9 13-8 2-9 6-8 12 0 15-3 30-17 37-18 9-21 21-21 35 0 1 0 2 0 2-7 55-33 101-80 139-61 51-135 72-220 62-95-11-164-55-207-129-17-29-24-60-25-92 0-4-2-6-6-8-16-8-26-19-28-34-1-5-1-11-2-16 0-2-1-5-2-6-13-3-15-11-15-21 0-22 0-43 0-64 0-14 2-17 17-23z m605-16c1 10 2 19 15 23 0 0 1 0 2 0 0-15-1-30 0-45 0-25-12-46-33-62-31-24-69-31-109-33-2 0-5 2-7 3-8 8-18 12-30 12-16-1-33 0-50-1 28 12 53 28 74 49 12 11 22 24 30 38v-9c0-12 7-18 22-18h30c32 0 54 16 56 43z m-69 153c6 0 11 0 16 0 11-1 16-7 16-18 0-38 0-77 0-115 0-2 0-5 0-7 2-25-10-26-32-24v164z m-348 200c85 41 171 37 250-11 62-38 93-91 95-157-4 0-7 0-10 0-9 1-16-1-20-5-6 11-13 21-21 31-41 50-94 76-159 80-64 4-122-15-168-61-20-20-35-42-46-64 0 1 0 3 0 4-2 10-8 14-19 15-6 0-11 0-17 0 4 74 40 131 115 168z m-149-220c0 16 5 20 23 20h9v-164c-1 0-2 0-2 0-26-1-30 2-30 24v120z" />
<glyph glyph-name="safety" horiz-adv-x="1000" unicode="&#xefdc;" d="M811 682c-256 0-299 96-299 98-2 4-7 8-12 8h0c-5 0-10-4-12-8 0-1-44-98-299-98-8 0-13-6-13-13v-435c0-179 306-315 319-321 1-1 3-1 5-1 2 0 4 0 5 1 13 6 319 142 319 321v435c0 7-5 13-13 13z m-92-187c-115-106-205-251-232-321-1-2-3-4-5-4 0-1-1-1-1-1-2 0-4 1-5 2l-169 172c-1 2 50 47 52 45l93-73c36 43 125 139 249 214 2 0 20-26 20-26 1-3 0-6-2-8z" />
<glyph glyph-name="warning" horiz-adv-x="1000" unicode="&#xf026;" d="M132-46h737c51 0 84 55 61 101l-368 652c-26 51-98 51-124 0l-368-652c-23-46 10-101 62-101z m426 152c0-34-25-60-60-60s-60 26-60 60v2c0 34 25 60 60 60s60-26 60-60v-2z m-92 441h69c19 0 30-16 28-36l-30-266c-2-19-15-31-33-31-17 0-30 12-32 31l-31 266c-2 20 10 36 29 36z" />
<glyph glyph-name="close" horiz-adv-x="1000" unicode="&#xeee4;" d="M710 643c-65-65-129-131-194-197-9-9-23-9-31 0-65 66-130 132-195 197-8 9-22 9-31 0-15-16-31-32-47-48-8-9-8-23 0-32 63-64 128-130 194-197 9-9 8-23 0-32-65-66-130-132-195-198-8-9-8-23 0-31l48-48c9-9 23-9 31 0l195 197c8 9 22 9 31 0 64-66 129-131 194-197 8-9 22-9 31 0 16 16 31 32 47 48 9 9 9 23 0 32-63 65-128 130-194 197-8 9-8 23 0 32 65 66 130 132 195 198 8 9 8 23 0 32l-48 48c-9 8-23 8-31-1z" />
<glyph glyph-name="ui-home" horiz-adv-x="1000" unicode="&#xec5e;" d="M500-69c-75 0-150 1-225 0-105-1-164 82-161 161 4 72 2 145 1 217 0 16 3 26 19 34 117 61 233 124 349 186 13 7 23 7 35 0 116-63 232-125 349-186 14-8 19-16 18-32 0-75 0-150 0-225 0-89-64-154-153-155-78 0-155 0-232 0z m436 479c-13 5-27 9-39 16-125 65-249 131-372 199-19 10-33 9-50-1-126-68-251-134-377-201-43-23-86-5-96 40-7 27 7 54 38 70 116 62 231 124 347 185 30 16 60 34 92 47 13 5 33 5 45-1 148-77 295-156 441-234 29-15 41-43 33-71-9-29-31-46-62-49z" />
<glyph glyph-name="home" horiz-adv-x="1000" unicode="&#xef47;" d="M926 427l-96 68c1 3 1 6 1 9 0 24 0 47 0 70s0 47 0 71c0 13-4 17-17 17-31 0-62 0-92 0-13 0-17-4-17-17l0-62-190 134c-14 9-16 10-29 0l-244-171c-56-40-112-80-169-120-11-8-13-13-7-23 19-27 37-53 56-80 2-3 7-5 11-9 5 3 10 6 14 8l20 15c-1-3-1-6-1-9 0-110 0-221 0-331 0-17 4-21 21-21h208c18 0 21 3 21 21v294h168v-295c0-16 4-20 20-20h209c15 0 19 4 19 19 0 112 0 224 0 336 0 2 0 5-1 7l23-16c13-9 18-8 27 5l50 72c10 14 9 18-5 28z" />
<glyph glyph-name="ui-cart" horiz-adv-x="1000" unicode="&#xec48;" d="M417 176c-37 0-67-30-67-67 0-37 30-67 67-67 37 0 67 30 67 67 0 37-30 67-67 67z m350 0c-37 0-67-30-67-67 0-37 30-67 67-67s67 30 67 67c0 37-30 67-67 67z m217 403h-732l-50 79h-166c-20 0-36-16-36-36v-13c0-20 16-36 36-36h108c-2-4-2-9 2-15l188-314c7-12 24-22 38-22h445c13 0 29 10 35 23l146 312c6 12-1 22-14 22z m-248-86c0 14 11 25 25 25h10c13 0 25-11 25-25v-5c0-14-12-25-25-25h-10c-14 0-25 11-25 25v5z m-91 0c0 14 12 25 25 25h10c14 0 25-11 25-25v-5c0-14-11-25-25-25h-10c-13 0-25 11-25 25v5z m-91 0c0 14 12 25 25 25h10c14 0 25-11 25-25v-5c0-14-11-25-25-25h-10c-13 0-25 11-25 25v5z m-90 0c0 14 11 25 25 25h9c14 0 25-11 25-25v-5c0-14-11-25-25-25h-9c-14 0-25 11-25 25v5z m-91 0c0 14 11 25 25 25h9c14 0 25-11 25-25v-5c0-14-11-25-25-25h-9c-14 0-25 11-25 25v5z m-66-30c-14 0-25 11-25 25v5c0 14 11 25 25 25h9c14 0 25-11 25-25v-5c0-14-11-25-25-25h-9z m55-88h-9c-14 0-25 11-25 25v5c0 14 11 25 25 25h9c14 0 25-11 25-25v-5c0-14-11-25-25-25z m70-67c0-14-11-25-25-25h-9c-14 0-25 11-25 25v5c0 14 11 25 25 25h9c14 0 25-11 25-25v-5z m12 67c-14 0-25 11-25 25v5c0 14 11 25 25 25h9c14 0 25-11 25-25v-5c0-14-11-25-25-25h-9z m79-67c0-14-11-25-25-25h-9c-14 0-25 11-25 25v5c0 14 11 25 25 25h9c14 0 25-11 25-25v-5z m12 67c-14 0-25 11-25 25v5c0 14 11 25 25 25h9c14 0 25-11 25-25v-5c0-14-11-25-25-25h-9z m79-67c0-14-11-25-25-25h-10c-13 0-25 11-25 25v5c0 14 12 25 25 25h10c14 0 25-11 25-25v-5z m12 67c-14 0-25 11-25 25v5c0 14 11 25 25 25h9c14 0 25-11 25-25v-5c0-14-11-25-25-25h-9z m79-67c0-14-11-25-25-25h-10c-13 0-25 11-25 25v5c0 14 12 25 25 25h10c14 0 25-11 25-25v-5z m11 67c-13 0-25 11-25 25v5c0 14 12 25 25 25h10c14 0 25-11 25-25v-5c0-14-11-25-25-25h-10z m80-67c0-14-12-25-25-25h-10c-14 0-25 11-25 25v5c0 14 11 25 25 25h10c13 0 25-11 25-25v-5z m46 92c0-14-12-25-25-25h-10c-14 0-25 11-25 25v5c0 14 11 25 25 25h10c13 0 25-11 25-25v-5z m44 88c0-14-11-25-24-25h-10c-14 0-25 11-25 25v5c0 14 11 25 25 25h10c13 0 24-11 24-25v-5z" />
<glyph glyph-name="exchange" horiz-adv-x="1000" unicode="&#xef18;" d="M549 317h-289l107 107c8 8 8 20 0 27l-45 45c-7 8-19 8-27 0l-227-227c-7-7-7-19 0-27l227-227c8-7 20-7 27 0l45 45c8 8 8 20 0 27l-115 116h297c11 0 19 8 19 19v76c0 10-8 19-19 19z m383 140l-227 227c-8 8-20 8-27 0l-45-45c-8-7-8-19 0-27l107-107h-289c-11 0-19-9-19-19v-76c0-11 8-19 19-19h297l-115-116c-8-7-8-19 0-27l45-45c7-7 19-7 27 0l227 227c7 8 7 20 0 27z" />
<glyph glyph-name="ui-rotation" horiz-adv-x="1000" unicode="&#xec80;" d="M172 356c0 48 12 97 33 141l2 0c15 30 35 59 61 84 110 111 279 126 406 47l-107-107 416-87-45 222-42 194-99-99c-195 145-472 130-649-47-87-88-135-199-144-313l168-35z m657-13c-1-48-12-96-34-140l-1 0c-15-30-36-59-61-84-110-111-279-126-406-47l105 106-415 88 29-144 59-272 99 99c195-145 472-130 649 47 87 87 134 198 143 312l-167 35z" />
<glyph glyph-name="star" horiz-adv-x="1000" unicode="&#xf000;" d="M935 444c-16-17-33-34-50-51-45-44-91-89-137-133-7-7-14-14-21-22-3-3-4-8-4-12 17-99 34-197 51-296 0-1 0-1 0-2-1-1-5 1-10 4-18 9-35 18-52 27-69 36-138 73-207 109-6 3-10 2-15-1-86-45-172-91-259-136-1-1-3-2-4-2-3-1-4 2-3 8 4 23 7 46 11 69 13 74 26 148 38 222 1 3-1 8-4 11-45 44-90 87-134 132-25 24-48 49-70 74-4 4-3 8 3 9 12 2 26 4 40 6 60 9 121 17 181 26 20 3 41 7 61 9 8 1 11 4 15 11 42 86 84 172 127 258 1 2 2 3 3 5 1 3 4 4 6 1 1-1 2-3 2-4 43-87 86-174 129-261 3-6 7-9 14-10 89-13 177-26 266-39 7-1 13-2 20-3 6 0 7-4 3-9z" />
<glyph glyph-name="price" horiz-adv-x="1000" unicode="&#xefc5;" d="M697 779c-7 7-17 10-26 8l-148-38c-5-1-9-4-13-7l-439-440c-11-11-11-28 0-39l332-332c6-6 14-14 19-16 4-2 7-3 11-3 7 0 14 3 19 9l440 439c3 4 6 8 7 13l38 148c2 9-1 19-8 26l-232 232z m-409-537c-7 0-14 2-20 8-11 10-11 28 0 39l195 194c11 11 28 11 39 0 11-10 11-28 0-39l-195-194c-5-6-12-8-19-8z m65-66c-7 0-14 3-19 8-11 11-11 28 0 39l195 195c10 10 28 10 39 0 10-11 10-29 0-39l-195-195c-5-5-13-8-20-8z m280 137l-194-195c-6-5-13-8-20-8-7 0-14 3-19 8-11 11-11 28 0 39l194 195c11 11 29 11 39 0s11-28 0-39z m121 163c-17-17-40-27-64-27-24 0-47 10-64 27-36 35-36 93 0 128 17 17 40 27 64 27 24 0 47-10 64-27 35-35 35-93 0-128z" />
<glyph glyph-name="ui-play" horiz-adv-x="1000" unicode="&#xec74;" d="M119 360c0 118-8 238 2 356 11 130 97 171 207 97 167-113 330-235 491-358 86-65 86-143-2-209-166-125-332-249-504-367-92-63-179-21-189 95-11 127-2 257-2 386h-3z" />
<glyph glyph-name="food-cart" horiz-adv-x="1000" unicode="&#xeb68;" d="M579 181c6 0 11 5 11 11 0 6-5 11-11 11-6 0-11-5-11-11 0-6 5-11 11-11z m-77 0c7 0 11 5 11 11 0 6-4 11-11 11-5 0-11-5-11-11 0-6 6-11 11-11z m119-31c6 0 11 5 11 11 0 6-5 10-11 10-6 0-11-4-11-10 0-6 5-11 11-11z m-77 0c7 0 11 5 11 11 0 6-4 10-11 10-5 0-11-4-11-10 0-6 6-11 11-11z m-160 0c6 0 11 5 11 11 0 6-5 10-11 10-6 0-11-4-11-10 0-6 5-11 11-11z m42 31c6 0 11 5 11 11 0 6-5 11-11 11-6 0-11-5-11-11 0-6 5-11 11-11z m34-31c7 0 11 5 11 11 0 6-4 10-11 10s-11-4-11-10c0-6 5-11 11-11z m424 638h-768c-16 0-29-13-29-29v-79c0-37 31-68 69-68 26 0 49 15 60 36 10 16 8 16 17 0 12-21 35-36 61-36s49 15 60 36c9 16 8 16 17 0 12-21 34-36 61-36s48 15 60 36c9 16 8 16 17 0 12-21 34-36 60-36s49 15 61 36c9 16 8 16 17 0 11-21 34-36 60-36s49 15 61 36c9 16 7 16 16 0 12-21 35-36 61-36 38 0 69 31 69 68v79c0 16-14 29-30 29z m12-817h-28v317c0 33-27 59-60 59h-3v247c-11 5-21 11-29 20-8-8-17-14-26-19v-248h-499v248c-10 5-19 11-26 19-8-9-18-15-29-20v-246h-4c-33 0-60-27-60-60v-291h0v-26h-28c-9 0-17-7-17-17v-24c0-10 8-17 17-17h792c10 0 18 7 18 17v24c0 9-8 17-18 17z m-504 253c27 21 65 31 108 31s82-10 109-31c30-22 45-55 45-94v0c0-2-2-4-4-4h-300c-2 0-4 1-4 4 0 39 16 72 46 94z m262-223c0-13-11-23-24-23h-259c-14 0-24 10-24 23v23c0 2 2 3 4 3h299c2 0 4-1 4-3v-23z m-3 38h-301c-13 0-23 11-23 25 0 14 10 25 23 25h301c12 0 22-11 22-25 0-14-10-25-22-25z m14 57h-330c-4 0-8 4-8 8s4 9 8 9h330c5 0 9-4 9-9s-4-8-9-8z" />
<glyph glyph-name="food-basket" horiz-adv-x="1000" unicode="&#xeb67;" d="M864 397h-1c-17 0-22 10-10 23l25 24c9 9 9 24 0 33l-33 33c-4 4-10 6-17 6-6 0-13-2-17-6l-64-65c-13-12-23-8-23 10v166c0 3 0 8-39 119 0 0 0 1 0 1-1 1 0 1 0 2l1 0c8 4 13 12 13 20v3c0 12-10 22-22 22h-115c-12 0-22-10-22-22v-3c0-9 6-17 14-20 0 0 1-1 1-1 1 0 1 0 1-1l-1-1c-40-110-40-116-40-119v-220l-115 128c-12 13-32 15-46 4l-104-82-58 59c-4 4-11 6-17 6-7 0-13-2-17-6l-33-33c-4-4-7-10-7-17 0-6 3-12 7-17l24-24c13-12 8-22-9-22h-4c-18 0-32-14-32-31v-59c0-17 13-32 28-32 15 0 32-13 36-30l83-302c5-17 23-31 40-31h418c17 0 35 14 40 31l83 302c4 17 20 30 36 30 15 0 28 15 28 32v59c0 17-14 31-32 31z m-285 333h81l42-110h-160l37 110z m-243-714c0-6-5-11-11-11-7 0-12 5-12 11v206c0 6 5 11 12 11 6 0 11-5 11-11v-206z m117 0c0-6-5-11-11-11-6 0-11 5-11 11v206c0 6 5 11 11 11 6 0 11-5 11-11v-206z m116 0c0-6-5-11-11-11-6 0-11 5-11 11v206c0 6 5 11 11 11 6 0 11-5 11-11v-206z m114 0c0-6-5-11-11-11-6 0-11 5-11 11v206c0 6 5 11 11 11 6 0 11-5 11-11v-206z m190 313c0-17-13-31-31-31h-684c-18 0-31 14-31 31v14c0 18 13 32 31 32h36c17 0 21 10 8 22l-40 41c-13 12-15 30-5 40 9 10 27 8 40-4l98-98c0-1 285-1 381-1 18 0 42 10 54 22l75 76c12 13 31 15 41 5 10-9 7-27-5-39l-41-41c-12-13-8-23 10-23h32c17 0 31-14 31-31l0-15z" />
<glyph glyph-name="contacts" horiz-adv-x="1000" unicode="&#xeef1;" d="M612 496c-77 0-140-66-140-147 0-79 63-145 140-145 77 0 139 66 139 146 0 80-62 146-139 146z m81-217c-18-21-41-34-68-37-37-4-68 9-93 38-2 2-1 4 0 6 10 22 25 38 47 48 2 0 3 1 5 2-29 20-33 52-25 75 9 24 32 39 56 38 24-1 46-19 53-43 6-24-1-53-27-69 4-3 9-5 13-7 18-10 31-25 39-44 2-3 2-4 0-7z m-508 443v-70c20 0 39 0 57 0 55-1 92-51 79-104-9-36-40-61-76-62-20 0-40 0-60 0v-68c20 0 39 0 58 0 42-1 75-30 80-71 5-41-18-79-56-90-12-4-24-4-36-4-15-1-31 0-46 0v-59c21 0 40 1 60 0 33-1 57-17 71-48 14-30 10-60-10-86-16-22-39-31-65-31-18 0-37 0-56 0v-59s30-58 67-58h601c36 0 66 29 66 66v744c0 36-30 66-66 66h-601c-37-1-67-30-67-66z m427-549c-94 0-170 79-170 178 1 97 77 176 170 176 93 0 169-78 169-176 1-99-75-178-169-178z m-497 128c20 0 41 0 62 0 21 0 42 0 64 0 18 1 29 12 31 31 2 21-14 37-37 38-40 0-80 0-120 0-20 0-34-13-34-33 0-21 13-35 34-36z m129-223c16 0 27 11 28 28 1 15-11 30-25 31-6 1-12-1-17-1-39 0-79 0-118 0-19 0-31-12-31-30 0-17 12-28 31-29 22 0 43 0 65 0 22 1 45 0 67 1z m-132 467c22 0 43 0 65 0 22 0 44 0 66 0 17 0 30 12 30 29 0 16-13 29-30 29-44 1-87 0-131 0-19 0-31-11-31-28 0-18 12-30 31-30z" />
<glyph glyph-name="check" horiz-adv-x="1000" unicode="&#xeed8;" d="M396 106l-193 192c-4 5-4 12 0 17l66 65c4 4 11 4 16 0l108-108c4-4 11-4 16 0 101 108 202 215 303 322 4 5 12 5 16 1l68-65c5-4 5-11 1-16-129-136-257-272-385-408-4-5-12-5-16 0z" />
<glyph glyph-name="clock-time" horiz-adv-x="1000" unicode="&#xeedc;" d="M500 788c-239 0-432-193-437-428-5-245 189-444 430-448 251-3 440 198 444 429 5 246-194 447-437 447z m3-788c-196-1-353 156-353 350 0 193 157 350 350 350 193 0 349-157 350-350 1-186-150-348-347-350z m27 612h-59c-4 0-7-3-7-7v-210c0-4-4-7-8-7h-134c-4 0-7-3-7-7v-60c0-4 3-7 7-7h208c4 0 7 3 7 7v284c0 4-3 7-7 7z" />
<glyph glyph-name="heart" horiz-adv-x="1000" unicode="&#xef45;" d="M500 595c16 28 36 52 60 72 90 73 230 66 311-17 64-66 80-145 55-232-19-68-56-126-100-180-73-87-160-155-255-215-21-13-43-26-64-38-3-2-9-3-12-1-109 62-211 134-296 227-52 55-94 117-119 189-21 60-25 120 1 179 34 76 94 123 177 135 104 14 185-25 240-116 0-1 1-1 2-3z" />
<glyph glyph-name="layers" horiz-adv-x="1000" unicode="&#xef5c;" d="M500 380l438 157-436 159h-3l-437-159 436-157h2z m0-113l-191 69-138-49 329-119 329 119-138 49-191-69z m0-163l-191 69-138-50 329-119 329 119-138 50-191-69z" />
<glyph glyph-name="page" horiz-adv-x="1000" unicode="&#xefb2;" d="M828 788h-656c-30 0-55-25-55-55v-766c0-30 25-55 55-55h656c30 0 55 25 55 55v766c0 30-25 55-55 55z m-519-165h218c15 0 28-12 28-27 0-15-13-27-28-27h-218c-15 0-28 12-28 27 0 15 13 27 28 27z m383-546h-383c-15 0-28 12-28 27 0 15 13 27 28 27h382c16 0 28-12 28-27 0-15-13-27-27-27z m0 164h-383c-15 0-28 12-28 27 0 15 13 27 28 27h382c16 0 28-12 28-27 0-15-13-27-27-27z m0 164h-383c-15 0-28 12-28 27 0 15 13 27 28 27h382c16 0 28-12 28-27 0-15-13-27-27-27z" />
<glyph glyph-name="recycle" horiz-adv-x="1000" unicode="&#xefd0;" d="M75 491l39-31c4-3 6-10 3-15l-47-90c-26-45 19-90 47-105 26-14 64-17 101-17 6 0 12 4 15 9l63 102c2 4 8 6 13 3l38-20c5-3 6-1 4 4l-86 159c-3 5-9 8-14 8l-174-1c-6 0-7-3-2-6z m5-245l108-200c3-5 7-12 11-16 25-24 66-30 108-29h114c6 0 10 5 10 10v187c0 5-4 9-10 9l-225 2c-34-2-79 4-114 39-4 4-5 3-2-2z m726 406l-46-20c-5-2-11 0-14 4l-56 85c-28 45-88 28-115 10-25-15-46-48-64-80-2-5-2-13 0-17l59-104c3-5 1-11-3-14l-36-23c-5-3-4-5 1-5l181-2c5-1 12 3 14 8l83 153c3 5 1 7-4 5z m-216 114l-228 2c-5 0-14-1-19-2-33-10-58-43-77-81l-56-100c-3-4-1-10 4-13l163-90c5-3 11-1 13 4l111 196c15 31 42 67 89 81 5 2 5 3 0 3z m21-829l6 50c0 5 5 9 10 10l102 8c52 2 66 63 64 95-1 29-20 63-39 95-3 5-10 8-15 8l-120-1c-5 0-10 4-10 10l-3 42c0 6-3 6-5 2l-90-158c-2-4-2-12 1-16l93-147c3-4 6-4 6 2z m205 133l112 199c3 4 7 12 8 17 7 34-10 72-33 107l-60 97c-3 5-9 6-14 3l-158-99c-4-2-6-8-3-13l118-192c20-28 38-69 28-117-2-6-1-6 2-2z" />
<glyph glyph-name="settings" horiz-adv-x="1000" unicode="&#xefe2;" d="M890 416h-489c-23 45-70 75-125 75-54 0-101-30-125-75h-41c-10 0-18-8-18-18v-96c0-10 8-18 18-18h41c24-45 71-75 125-75 55 0 102 30 125 75h489c10 0 18 8 18 18v96c0 10-8 18-18 18z m-585-132c-8-4-18-6-29-6s-20 2-29 6c-25 11-43 37-43 66 0 29 18 55 43 66 9 4 19 6 30 6 10 0 20-2 29-6 25-11 43-36 43-66-1-29-18-55-44-66z m585 428h-142c-24 45-71 76-125 76s-101-31-125-76h-388c-10 0-18-8-18-18v-95c0-10 8-19 18-19h388c23-44 71-75 125-75 54 0 101 31 125 75h142c10 0 18 9 18 19v95c0 10-8 18-18 18z m-238-132c-9-3-19-6-29-6s-20 3-29 6c-26 12-43 37-43 66 0 30 17 55 43 66 8 4 18 6 29 6s20-2 29-6c25-11 43-36 43-66 0-29-18-54-43-66z m238-460h-233c-24 44-71 75-125 75-55 0-102-30-125-75h-297c-10 0-18-8-18-19v-95c0-10 8-18 18-18h297c23-45 71-75 125-75 54 0 101 30 125 75h233c10 0 18 8 18 18v95c0 11-8 19-18 19z m-329-132c-9-4-19-6-29-6s-21 2-29 6c-26 11-43 36-43 66 0 29 17 54 43 66 8 4 18 6 29 6 10 0 20-2 29-6 25-11 43-37 43-66 0-30-18-55-43-66z" />
<glyph glyph-name="tasks-alt" horiz-adv-x="1000" unicode="&#xf006;" d="M280 637h25c19 0 34 19 34 41v68c0 23-15 41-34 41h-25c-19 0-35-18-35-41v-68c0-22 16-41 35-41z m401 0h25c19 0 35 19 35 41v68c0 23-16 41-35 41h-25c-19 0-34-18-34-41v-68c0-22 15-41 34-41z m136 75h-35v-34c0-45-34-82-76-82h-25c-41 0-75 37-75 82v34h-226v-34c0-45-34-82-75-82h-25c-42 0-76 37-76 82v34h-21c-59 0-106-47-106-105v-589c0-58 47-106 106-106h634c59 0 106 48 106 106v589c0 58-48 105-106 105z m56-685c0-29-24-53-53-53h-640c-29 0-53 24-53 53v480h746l0-480z m-619 298h492c15 0 27 19 27 43 0 24-12 44-27 44h-492c-15 0-28-20-28-44 0-24 13-43 28-43z m0-137h492c15 0 27 19 27 43s-12 44-27 44h-492c-15 0-28-20-28-44s13-43 28-43z m0-137h297c15 0 28 20 28 44 0 24-13 43-28 43h-297c-15 0-28-19-28-43 0-24 13-44 28-44z" />
<glyph glyph-name="login" horiz-adv-x="1000" unicode="&#xef7b;" d="M719 333c10 9 10 25 0 35l-285 294c-10 9-25 9-34 0l-57-59c-9-9-9-25 0-35l135-139h-364c-13 0-24-11-24-24v-99c0-14 11-25 24-25h374l-145-149c-9-10-9-26 0-35l57-59c9-9 24-9 34 0l285 295z m-137 333h206v-632h-206v-122h267c33 0 61 28 61 61v754c0 33-28 61-61 61h-267v-122z" />
<glyph glyph-name="logout" horiz-adv-x="1000" unicode="&#xef7c;" d="M903 333c9 9 9 25 0 35l-286 294c-10 9-25 9-34 0l-57-59c-9-9-9-25 0-35l135-139h-364c-13 0-24-11-24-25v-98c0-14 11-25 24-25h374l-145-149c-9-10-9-26 0-35l57-59c9-9 24-9 34 0l286 295z m-485 333h-206v-632h206v-122h-267c-34 0-61 28-61 61v754c0 33 27 61 61 61h267v-122z" />
<glyph glyph-name="checked" horiz-adv-x="1000" unicode="&#xeed9;" d="M705 73h-510c-7 0-12 6-12 12v510c0 7 5 13 12 13h392c7 0 17 4 22 9l102 102c5 5 3 9-4 9h-632c-7 0-12-6-12-13v-750c0-7 5-12 12-12h750c7 0 12 5 12 12v472c0 6-4 8-8 3l-103-102c-5-5-9-15-9-21v-232c0-6-5-12-12-12z m-400 365l-67-68c-5-5-5-12 0-17l186-186c5-5 13-5 18 0l492 492c5 5 5 13 0 17l-67 68c-5 5-13 5-18 0l-407-408c-5-5-13-5-18 0l-101 102c-5 4-13 4-18 0z" />
<glyph glyph-name="user-alt-7" horiz-adv-x="1000" unicode="&#xed01;" d="M969 31c-44 122-121 217-234 281-6 3-10 4-16-1-61-51-131-79-211-81-85-2-161 25-226 80-7 5-11 5-17 2-46-26-87-58-122-96-75-81-121-176-137-285-2-15-4-29-6-44v-33c329 0 659 0 988 0 9 0 12 2 12 11-2 57-11 112-31 166z m-474 260c159-1 284 123 283 280-2 158-130 276-278 275-156 0-278-124-277-281 1-148 121-272 272-274z" />
<glyph glyph-name="user-alt-3" horiz-adv-x="1000" unicode="&#xecfd;" d="M499-122c-160 0-319 1-478 0-17 0-19 6-20 20-8 101 52 156 131 199 50 27 106 43 158 65 21 9 42 18 60 32 23 18 28 39 13 64-12 19-26 37-39 56-65 98-89 204-61 319 27 116 125 193 244 189 100-3 174-52 214-144 53-125 30-244-40-357-11-19-26-36-38-54-23-33-18-58 17-80 40-25 84-39 128-55 61-22 119-50 166-98 41-41 49-92 45-147-1-12-9-9-15-9-57 0-114 0-171 0-105 0-209 0-314 0v0z" />
<glyph glyph-name="info-circle" horiz-adv-x="1000" unicode="&#xef4e;" d="M500 788c-242 0-437-196-437-438s195-438 437-438 438 196 438 438-196 438-438 438z m-65-167c8 1 17 3 26 3 10 1 18 1 26 1 8 0 17 0 27-1 9 0 18-2 26-3 2-8 3-17 3-25 0-8 1-16 1-24 0-8-1-16-1-25 0-8-1-16-3-25-8-1-17-2-26-2-9-1-18-1-26-1-8 0-17 0-26 1-10 0-19 1-27 2-3 17-4 34-4 50 0 15 1 32 4 49z m163-546h-196c-3 13-4 26-4 39 0 6 0 13 1 20 0 7 2 14 3 20h48v226h-48c-1 6-3 13-3 20-1 7-1 13-1 20 0 13 1 26 4 39h148v-305h48c2-6 3-13 3-20 1-7 1-14 1-20 0-13-1-26-4-39z" />
<glyph glyph-name="vehicle-delivery-van" horiz-adv-x="1000" unicode="&#xe9bd;" d="M406 371c0 74 0 148 1 222 0 13 1 27 5 40 7 22 20 32 43 32h417c13 0 23-8 23-19 1-12-8-21-22-21-17 0-33 0-50 0-14 0-22-8-22-22 0-14 8-21 23-21 28 0 55 0 83 0 5 0 10-1 15-2 9-2 16-12 16-20-1-10-9-18-20-19-3 0-6 0-10 0h-180c-16 0-24-6-25-19-1-15 7-25 23-25 42 0 85 0 127 0 11 0 22 0 33 0 14 0 24-8 24-21-1-11-10-19-24-19-15 0-31 0-46 0-16 0-25-9-25-22 0-15 9-23 25-23 24 0 49 0 73 0 15 0 25-8 25-20 0-12-11-20-26-20l-144 0c-14 0-22-8-22-21-1-15 6-22 22-22 28 0 57-1 85 0 8 0 10-3 10-10 0-34 0-68 0-102 0-45-38-83-83-84-10 0-21-2-28 2-8 4-3 16-4 25-10 71-75 120-147 113-59-5-109-51-119-109-1-8-1-15-1-23 0-6-2-8-8-8-19 0-38 1-56 0-9 0-10 3-10 11 0 50 0 101 0 151-1 26-1 51-1 76z m-32-143c-11 12-24 22-37 30-44 26-110 20-149-13-33-27-49-62-50-104 0-6-3-8-9-8-10 1-20 0-30 0-19 1-34 13-36 31-2 16 9 32 27 36 7 2 7 5 7 11 0 41 0 82 0 123 0 14 2 27 6 40 15 43 29 86 44 130 13 40 42 63 84 63 45 1 91 0 136 0 5 0 8 0 8-7 0-109 0-218 0-328 0 0 0-1-1-4z m-130 165c27 0 54 0 82 0 7 0 10 1 10 10 0 38 0 76 0 114 0 7-2 10-10 9-33 0-66 0-99 0-20 0-34-9-41-29-10-31-21-63-31-94-3-8-1-10 7-10 27 0 55 0 82 0z m132-253c0-57-47-104-104-104-56-1-104 47-104 103 0 57 48 105 104 105 57 0 103-47 104-104z m-147-1c0-24 19-42 43-43 24 0 43 19 43 44 0 24-19 42-43 42-25 0-43-17-43-43z m385-103c-55 0-104 45-104 103 0 61 48 105 105 104 55 0 103-41 103-104 1-59-48-103-104-103z m-43 104c0-25 19-43 43-44 24 0 43 19 43 44 0 24-18 43-43 42-24 0-43-18-43-42z" />
<glyph glyph-name="fast-delivery" horiz-adv-x="1000" unicode="&#xee21;" d="M387 251c-41 0-73-33-73-73s32-73 73-73 73 33 73 73c0 40-33 73-73 73z m0-110c-20 0-37 17-37 37 0 20 17 36 37 36s36-16 36-36c0-20-16-37-36-37z m551 164v-78c0-19-16-35-36-35h-37c-7 47-47 83-96 83-49 0-89-36-96-83h-191c-6 47-47 83-95 83-49 0-89-36-96-83h-47c-19 0-35 16-35 35v78h729z m-169-54c-40 0-73-33-73-73s33-73 73-73 73 33 73 73c0 40-33 73-73 73z m0-110c-20 0-36 17-36 37 0 20 16 36 36 36 20 0 37-16 37-36 0-20-17-37-37-37z m155 243l-139 137c-9 8-20 13-33 13h-70v26c0 20-15 36-35 36h-403c-19 0-35-16-35-36v-5l-143-17 253-33-256-25 255-36-255-23 146-27v-69h728v25c1 13-5 25-13 34z m-61-5h-134c-3 0-5 3-5 6v103c0 3 2 5 5 5h26c1 0 3 0 4-1l108-103c4-4 1-10-4-10z" />
<glyph glyph-name="truck-loaded" horiz-adv-x="1000" unicode="&#xee3c;" d="M322 235c-43 0-77-34-77-77 0-43 34-77 77-77 42 0 77 34 77 77 0 43-35 77-77 77z m0-115c-22 0-39 17-39 38 0 21 17 39 39 39 21 0 38-18 38-39 0-21-17-38-38-38z m-67 115h-172c-7 0-13-5-13-12v-38c0-7 6-12 13-12h138c4 25 16 46 34 62z m470 0c-43 0-77-34-77-77 0-43 34-77 77-77s77 34 77 77c-1 43-35 77-77 77z m0-115c-22 0-39 17-39 38 0 21 17 39 39 39s38-18 38-39c0-21-17-38-38-38z m200 115h-30v168c0 20-6 39-17 56l-75 111c-19 27-49 44-82 44h-117c-14 0-25-11-25-25v-354h-191c18-16 31-37 34-62h202c7 49 49 87 101 87s93-38 100-87h100c7 0 13 5 13 12v38c0 7-6 12-13 12z m-123 201h-154c-7 0-13 6-13 13v85c0 7 6 13 13 13h94c4 0 8-2 10-6l60-85c6-8 0-20-10-20z m-282-176h-433c-13 0-24 11-24 25v111c0 14 11 25 24 25h433c14 0 25-11 25-25v-111c0-14-11-25-25-25z m-259 198h-174c-13 0-24 11-24 24v112c0 14 11 25 24 25h173c14 0 25-11 25-25v-111c0-14-11-25-24-25z m259 0h-173c-14 0-25 11-25 24v112c0 14 12 25 25 25h173c14 0 25-12 25-25v-112c0-13-11-24-25-24z" />
<glyph glyph-name="retweet" horiz-adv-x="1000" unicode="&#xefd7;" d="M277 221v205c0 8 6 13 14 13h63c7 0 9 5 4 10l-138 157c-4 6-12 6-17 0l-138-157c-5-5-3-10 5-10h63c7 0 13-5 13-13v-254c0-49 40-88 89-88h385c7 0 9 4 4 9l-96 105c-4 6-14 10-22 10h-215c-8 0-14 6-14 13z m577 52v254c0 49-40 89-89 89h-385c-7 0-9-4-4-10l96-104c5-6 14-10 22-10h216c7 0 13-6 13-13v-206c0-7-6-13-13-13h-64c-7 0-9-4-4-10l138-156c5-6 12-6 17 0l138 156c5 6 3 10-4 10h-64c-7 0-13 6-13 13z" />
<glyph glyph-name="support" horiz-adv-x="1000" unicode="&#xecfa;" d="M332 94l-130-60c-19-8-39-21-47-41 0 0-15-34-32-81h351l21 135-101 99-62-52z m514-101c-8 21-28 33-48 41l-129 60-63 52-100-99 20-135h351c-16 47-31 81-31 81z m-662 334h37c18 0 32 14 32 32v124c0 14-9 26-22 30 15 137 111 217 267 222h5c156-5 251-85 267-222-13-4-22-16-22-30v-124c0-18 14-32 32-32h37c18 0 32 14 32 32v124c0 15-11 28-26 31-7 76-36 140-84 187-51 50-124 79-211 86 0 0-9 1-27 1-19 0-28-1-28-1-87-7-160-36-211-86-48-47-77-111-84-187-15-3-26-16-26-31v-124c0-17 14-32 32-32z m550 143c2 144-67 230-234 230-167 0-235-86-234-230 3-208 102-331 234-331s232 123 234 331z" />
<glyph glyph-name="support-faq" horiz-adv-x="1000" unicode="&#xf002;" d="M807 674c-82 67-191 103-307 103s-225-36-307-103c-84-68-130-159-130-256 0-93 42-180 119-247l158-235c6-9 15-13 25-13h0c11 0 20 5 25 14l75 123c11-1 23-1 35-1 116 0 225 36 307 103 84 68 131 159 131 256 0 97-47 188-131 256z m-317-374c0-2-1-3-3-3h-242c-2 0-3 1-3 3v35c0 2 1 3 3 3h242c2 0 3-1 3-3v-35z m0 80c0-2-1-3-3-3h-242c-2 0-3 1-3 3v36c0 1 1 3 3 3h242c2 0 3-2 3-3v-36z m0 81c0-2-1-3-3-3h-242c-2 0-3 1-3 3v35c0 2 1 3 3 3h242c2 0 3-1 3-3v-35z m196-215c-13-2-24-3-36-3-12 0-24 1-35 3-2 12-3 24-3 35 0 12 1 24 3 36 11 2 23 3 35 3 11 0 23-1 36-3 1-12 2-24 2-35 0-12-1-24-2-36z m64 210c-6-11-13-21-21-28-8-8-17-14-26-19-8-4-15-8-21-10v-44c-11-2-22-3-32-3-11 0-21 1-31 3v83c8 1 15 3 23 6 8 2 16 5 23 10 6 4 12 9 16 15 5 7 7 14 7 24 0 14-5 24-15 31s-23 11-40 11c-7 0-13 0-18 0-5-1-10-2-15-3-4-1-9-2-13-4-5-1-10-3-15-5-5 9-8 17-11 26-3 9-5 19-6 28 9 3 17 6 24 8 7 2 14 4 20 5 7 1 14 2 21 3 6 0 14 0 21 0 39 0 68-8 88-26 19-18 29-42 29-72 1-15-2-28-8-39z" />
<glyph glyph-name="ssl-security" horiz-adv-x="1000" unicode="&#xeffd;" d="M822 173v230h-57v119c0 147-119 266-265 266s-265-119-265-266v-120h-57v-257c14 15 29 30 44 45h59l-103-104v-60c55 54 110 109 164 164h60c-6-6-11-11-17-17-64-64-128-128-192-193h-15v-67h644v81l-14-14h-59c0 1 1 2 1 3 11 10 21 20 32 31l40 40v60l-74-74-59-60h-60l149 149c15 15 29 29 44 44z m-487 229v120c0 91 74 165 165 165 91 0 165-74 165-165v-120h-330z m-22-422h-59c49 50 99 100 149 149l61 61h59l-150-150-60-60z m60 0c1 1 1 2 2 2l31 32 176 176h60c-6-6-11-11-17-17-64-64-128-128-192-193l-60 0z m388 193c-64-64-128-128-192-193h-60c0 1 1 2 2 2 10 11 20 21 31 32l176 176h60c-6-6-12-11-17-17z" />
<glyph glyph-name="headphone-alt" horiz-adv-x="1000" unicode="&#xea36;" d="M78 53h42c-8-161 160-193 291-187 5-10 15-16 27-16h133c17 0 31 14 31 31v28c0 17-14 31-31 31h-133c-15 0-28-11-31-25-106-6-242 10-237 138h57c15 0 27 12 27 26v311c0 14-12 26-27 26h-80c11 191 169 349 355 349 186 0 345-158 355-349h-84c-15 0-26-12-26-26v-311c0-14 11-26 26-26h150c14 0 26 12 26 26v311c0 6-2 12-6 17-6 241-205 443-441 443-234 0-432-200-440-440-6-4-10-12-10-20v-311c0-14 11-26 26-26z" />
<glyph glyph-name="card" horiz-adv-x="1000" unicode="&#xeed0;" d="M865 652h-730c-40 0-72-32-72-72v-33h0v-427c0-39 32-72 72-72h730c40 0 73 32 73 72v460c0 40-33 72-73 72z m-393-282c0 6 5 12 11 12h226c6 0 11-6 11-12v-30c0-6-5-12-11-12h-226c-6 0-11 5-11 12v30z m-50-118c0-6-5-11-11-11h-218c-6 0-12 5-12 11v196c0 6 6 11 12 11h218c6 0 11-5 11-11v-196z m349 0c0-6-5-11-11-11h-277c-6 0-11 5-11 11v31c0 6 5 11 11 11h277c6 0 11-5 11-11v-31z m48 165c0-6-5-11-12-11h-324c-6 0-11 5-11 11v31c0 6 5 11 11 11h324c7 0 12-5 12-11v-31z" />
<glyph glyph-name="headphone-alt-3" horiz-adv-x="1000" unicode="&#xea35;" d="M0 78c18-8 35-16 54-25v165c-19-9-36-17-54-25v-115z m784 553c-104 91-226 117-359 97-191-27-339-190-345-380-3-107 0-214 0-321 0-36 26-61 62-61 28-1 57-1 85-1 44 1 68 24 68 68 0 68 0 136 0 204 0 45-25 70-70 70-24 0-49 0-75 0-3 134 47 240 161 307 130 77 265 74 393-9 104-68 150-170 146-298-27 0-52 0-77 0-42 0-67-25-67-67-1-69-1-138 0-207 0-42 23-66 65-67 26-1 53-1 79-1 47 1 70 25 70 72 0 100 1 200 0 300-1 118-48 216-136 294z m216-452c-1 5-1 12-5 14-15 10-31 18-49 27v-167c14 7 27 15 40 20 10 5 14 11 14 23-1 28 0 55 0 83z" />
<glyph glyph-name="fruits" horiz-adv-x="1000" unicode="&#xeb6b;" d="M467 483c10-12 20-23 33-32 10-6 20-8 31-5 6 2 11 3 16 6 30 14 54 35 73 61 16 20 26 42 27 68 0 12 0 24-4 35-7 18-21 28-38 34-18 8-37 12-57 14l-4 1c-21 2-41 4-62 1-23-4-40-15-48-38-10-24-11-49-4-74 8-26 21-50 37-71z m35-11c0 0-1 0-1 0-2 2-4 4-5 7 0 0 2 2 3 2 1 0 3-2 4-4 1-2 0-5-1-5z m38-6c-1 1-3 2-3 3 1 1 2 3 4 4 3 1 5 1 5 0 1 0 1-1 1-1-1-3-5-6-7-6z m85 114c1 1 2 1 2 0 1 0 1-1 1-1 0-4-1-9-2-13 0 0 0 0-1-1 0 0-1 0-2 1 0 0 0 0 0 1 0 1 0 2 0 3 0 2 0 5 0 6 1 1 1 2 2 3 0 1 0 1 0 1z m-10 42c0 1 1 3 3 3 1 0 2-1 3-2 2-2 3-4 3-7 1-2 0-5-1-7 0-1-1-1-1-1-2-1-4 1-5 2-3 3-3 8-2 12z m-7-80c1 1 3 1 3 1 1-1 1-1 1-2 0-1 0-3-1-6-2-3-3-5-6-7-1-1-3-1-3-1-1 1-2 3-1 4 1 4 3 8 7 11z m-12 43c2 2 5 2 6-1 0-1 0-2 1-4 0-2 0-6-1-8-1-1-1-2-2-3-2-3-5-3-6 0-2 4-1 13 2 16z m-14 48c2 2 5 2 7 0 2-3 2-6 3-9 0-2-1-6-1-8-1-1-1-2-2-3-2-2-4-2-7 0-3 5-3 15 0 20z m-2-131c-2-4-5-8-9-10-1 0-2 0-3 0 0 2 1 5 2 7s4 4 7 6c0 0 2 0 2-1 1 0 1-1 1-2z m-9 46c1 1 3 2 4 2 2-1 3-3 3-5 0-1 0-1 0-2 0-1 0-2 1-3s-1-2-2-4c-2-2-3-4-4-6-3-3-6-2-7 2-1 6 1 11 5 16z m-15 44c3 4 7 3 8-1 1-1 1-3 1-5 1-3 0-7-1-10-1-1-2-3-3-4-2-4-6-3-7 1-3 5-2 15 2 19z m-10-95c-1-2-3-3-4-2-2 0-3 2-3 3-1 1-1 2-1 3 0 2 1 5 2 7 1 1 1 2 2 3 2 2 6 1 7-2 1-5 0-9-3-12z m-6 142c3 3 6 3 7-2 1-1 1-3 1-4 1-3 0-7-1-10-1-1-2-3-3-4-2-3-5-3-7 1-2 5-1 14 3 19z m-12-85c3 3 6 3 8-1 0-1 0-3 0-4 1-3 0-7-1-9 0-2-1-3-2-4-2-3-5-3-7 1-2 4-1 13 2 17z m-5-71c2-1 4-4 3-8 0-2-1-4-2-5 0-1-2-2-3-2-1 0-2 1-2 3-1 0-1 1-1 2 0 2 0 5 1 7 1 2 3 3 4 3z m-14 111c1 2 2 3 3 5 2 3 5 2 7-1 3-6 2-16-2-20-3-3-6-3-8 0 0 2-1 4-1 6 0 3 0 7 1 10z m1-79c1-1 1-2 2-4 0-2 0-6-1-9-1-2-3-3-4-3-3 1-5 4-5 8 0 3 1 6 2 9 2 2 5 2 6-1z m-16 123c1 2 3 5 4 6 3 4 7 3 7-2 2-6 0-12-5-16-1-1-3-2-4-2-2 1-3 3-3 4 0 1 0 2 0 3 0 1-1 3-1 3 0 0 1 2 2 4z m-8-79c2 4 5 4 7 0 1-2 2-4 2-7 1-2 0-6-1-9-1-1-2-3-4-3-2-1-5 2-5 7 0 4 0 8 1 12z m-6-54c-1-1-1-1-3 0-3 3-5 8-5 12 0 3 2 3 3 2 3-2 4-4 5-7 1-2 1-6 0-7z m-6 97c2 2 4 2 5-1 1-1 1-3 1-4 1-2 0-6-1-8-1-1-1-2-2-4-2-2-4-1-6 1-2 4-1 13 3 16z m-11 42c1 1 4 2 5 2 1-1 1-2 2-3 0-2 0-5-2-7-1-2-3-4-5-5-2-3-5-1-5 2 0 5 2 8 5 11z m-11-80c0 0 1 0 1 1 1 0 2-1 3-2 3-4 4-8 4-13 0-1-1-3-2-3-1 0-2 1-3 2-2 2-3 5-4 8 0 3 0 6 1 7z m-5 40c0 1 1 2 2 2 0-1 1-2 1-2 1-1 1-2 1-4 0-1-1-4-2-6 0-1 0-2-1-3 0-1-1-2-2-2 0 0-1 1-1 2-1 5 0 9 2 13z m50 100c3-3 7-6 11-10 2-2 1-3-1-3-2 0-3 0-5-1-1 0-2 0-3-1-1-1-2-3 0-4 0-1 1-2 2-2 8-3 17-6 25-8 8-2 16-3 23-4 11-1 22-2 33-2 6-1 12 1 19 2 1 0 1 1 2 1 1 1 1 3 0 4-1 0-1 1-2 1-1 1-3 1-4 2-2 1-2 2 0 3 3 2 5 3 7 4 5 3 11 7 15 11 4 3 3 6-2 7-1 0-2 0-3 0-6-1-12-1-17-3-6-1-11-3-17-5-2 0-4 0-3 1 0 0 0 1 0 1 3 5 5 10 7 16 0 2 0 5-2 6-1 1-4 0-6-1-4-3-7-6-11-9-1-1-2-2-3-3-1-2-2-1-1 2 3 16 9 31 20 44 2 2 2 6-1 7-2 2-5 3-9 3-6 0-9-5-11-10-4-8-7-18-10-27-1-5-2-9-3-15 0-2-1-3-2 0-1 1-2 2-2 4-3 4-6 8-9 12-3 3-6 1-7-3 0-2-1-5 0-7 0-3 0-6 1-9 0-3-1-4-4-2-4 3-9 6-13 9-5 2-11 4-16 6-2 1-5 0-6-1-1-1 0-4 1-6 2-3 4-7 7-10z m-71-481c1-2 2-4 3-7 0-3 1-6 2-9h17c-1 6-3 11-4 16-1 2-1 5-1 7-1 2-1 5-2 7-2 14-3 28-2 42-11-10-25-17-40-20 10-8 18-17 24-29 1-2 2-5 3-7z m-12-9c-1 3-2 5-3 8-7 16-21 28-38 34-2 1-5 2-7 2l0-2c-1-5-3-11-5-16-6-13-15-24-27-33h82c-1 3-1 5-2 7z m37 118c0 0 0 0 0 1 1 2 0 4 0 6 0 2 1 4 1 6-2 19-11 35-25 46-12-11-28-18-45-20-3 0-5 0-8 0-9 0-18 1-26 4 0-14-3-27-10-39 13-11 23-27 27-45 1-3 2-7 2-11 0-2 0-4 0-6h1c2 0 4-1 7-1 5-1 10-1 16-1 23 2 42 16 53 35 1 5 2 10 4 15l1 2c0 3 1 5 2 8z m-180-124c0 0 1-1 2-1h26c27 6 48 27 53 53 0 1 0 3 1 4 0 1 0 2 0 3 0 2 0 3 0 5v2c0 2 0 3 0 5 0 0 0 1 0 1-2 18-11 33-23 44-3-3-5-6-8-8-2-2-4-4-6-5s-4-3-6-4c-10-7-22-11-35-12-3-1-5-1-8-1-2 0-4 1-6 1 0-2 1-4 1-5 2-25-7-48-23-65 9-8 20-14 32-17z m71 200c1-2 2-5 3-7 0-3 1-5 2-7 0-1 0-2 0-3 10-5 22-7 33-6 13 1 25 6 35 14 2 1 4 3 5 5 2 2 4 3 6 5 11 13 17 31 15 49-3 35-32 61-67 61-2 0-4 0-6 0-36-4-64-36-60-73 15-8 27-22 34-38z m-155-193c12 1 23 6 32 12 2 2 4 3 6 5 2 1 3 3 5 5 12 13 19 32 17 51 0 3-1 6-1 9-1 3-2 6-3 8-1 4-2 7-4 10-1 1-1 2-2 3-1 2-2 4-4 6-1 2-3 4-5 5-5 6-12 10-19 14-3 1-6 2-9 3-3 1-6 2-9 2-3 1-7 1-10 1-2 0-4 0-6 0-18-2-34-10-46-24-11-14-17-31-15-49 3-37 35-64 73-61z m-112 303c52-16 103-41 132-88 1-2 2-4 4-6 1-3 2-5 4-7-11-13-16-30-14-47 0-4 1-6 1-9 14-4 27-12 37-22 2-2 4-4 5-6 2-1 3-3 4-5 4-6 7-12 9-18 6-1 11-2 16-1 12 1 23 5 33 12 2 2 4 3 6 5 2 2 4 4 6 6l0 0c0 0 1 1 1 1 1 1 2 3 3 5 2 2 3 4 4 6 6 11 9 24 8 37v1c0 0 0 0 0 0 0 3-1 6-2 9l0 0c0 3-1 5-2 8-1 1-1 3-2 5-4 8-8 14-14 20-4 3-7 6-11 9-3 1-5 2-8 4-9 3-18 6-28 6-2 0-4 0-6-1-7 0-13-2-19-5l-4 6c-1 2-3 5-4 7-35 53-91 82-153 101-20 7-26-26-6-33z m97-61c-69 70-106-87-106-87 45-25 175 17 106 87z m749 166c-58-5-114-17-159-51-3-2-6-5-10-7-3-3-6-6-9-9-7 2-15 3-22 3-41 0-79-28-93-72-1-2-2-4-2-6-4-11-14-32-41-46-38-19-58-37-58-37l0 0c-22-17-41-40-53-66-1-2-2-4-2-7-1-2-2-4-3-6l-1-4c-8-24-9-50-5-75 0-2 0-5 1-7 0-2 1-5 1-7 2-6 4-12 6-18h370c7 30 6 61-4 90l0 0s-4 27-24 64c-15 30-10 55-7 64 1 2 1 3 2 4 1 3 2 7 2 10-19 13-34 29-40 48-3 11-5 30 10 49-1 1-2 2-3 3 3 2 6 4 9 6 3 3 6 5 9 7l5 2c2 1 3 3 4 3 11 7 21 12 31 13 27 10 56 15 85 17 22 2 24 37 1 35z m-77-65c-9 0-20-4-32-12-2-1-5-3-7-5-3-2-5-4-8-7-3-2-5-5-7-8-18-25-3-51 22-70 4-3 7-5 11-7 3-2 6-4 10-6 17-8 36-13 53-13 6 0 11 0 16 2 0 0-2 126-58 126z m-708-365c0-206 167-255 374-255 206 0 373 49 373 255h-747z" />
<glyph glyph-name="loop" horiz-adv-x="1000" unicode="&#xef80;" d="M823 238h-87c-7 0-13-6-13-12v-87c0-7-5-12-12-12h-422c-7 0-12 5-12 12v88c0 6 5 12 12 12h84c7 0 9 4 4 9-50 49-99 99-147 146-5 5-13 5-17 0-49-49-99-98-148-147-4-5-3-9 4-9h82c7 0 13-2 13-6v-129c0-53 36-89 89-89h494c52 0 89 36 89 88v130c0 3-6 6-13 6z m108 224h-83c-7 0-12 3-12 6v5c0 42 0 83 0 125 0 51-37 88-89 88h-495c-52 0-88-37-88-88v-130c0-3 5-6 12-6h88c7 0 12 6 12 13v86c0 7 6 12 12 12h423c6 0 12-5 12-12v-87c0-7-6-12-12-12h-84c-7 0-8-4-3-9l146-146c4-5 12-5 17 0 49 48 98 97 148 146 5 5 3 9-4 9z" />
<glyph glyph-name="ui-email" horiz-adv-x="1000" unicode="&#xec56;" d="M953 372c-3-78-27-146-71-204s-110-86-197-86c-29 0-54 8-75 24-21 17-36 40-45 69-15-30-33-53-55-68-23-15-49-23-79-23-53 0-94 21-122 64s-39 98-31 168c9 90 35 162 78 216 43 54 96 81 157 81 43 0 78-4 105-14 26-9 55-23 86-43l-1-2h2l-27-304c-2-31 0-52 6-64 6-11 14-17 24-17 40 0 72 19 96 58 25 38 38 87 41 145 6 122-18 216-71 284-54 68-136 102-247 102-109 0-194-37-258-110s-98-172-104-298c-6-123 20-220 78-291 58-71 141-107 249-107 30 0 61 3 93 10 33 6 61 15 84 25l21-89c-24-15-55-27-92-35-37-9-73-13-108-13-145 0-256 44-334 134-78 89-114 211-108 366 6 153 52 275 138 365s200 135 343 135c140 0 247-43 321-128 74-85 108-202 103-350z m-542-56c-4-42-1-75 9-97s25-33 46-33c20 0 37 5 52 16 15 11 29 31 40 60l22 242c-8 2-16 4-23 5-8 1-15 2-23 2-37 0-66-16-85-49s-32-81-38-146z" />
<glyph glyph-name="calendar" horiz-adv-x="1000" unicode="&#xeecd;" d="M739 697c0 13 0 25 0 37-1 23-15 43-38 51-23 7-48-1-62-19-8-11-12-23-12-36v-33c0-5-4-9-9-9h-59c-5 0-10 4-10 9 0 11 1 22 0 33 0 26-13 46-35 54-37 13-75-12-76-50 0-12 0-24 0-37 0-5-4-9-10-9h-60c-5 0-10 4-10 9 1 16 2 31 0 45-2 21-16 36-36 43-20 6-39 2-55-11-15-12-19-28-19-46 0-11 0-21 0-31 0-6-4-10-10-10h-164c-6 0-10-4-10-9v-756c0-5 5-9 10-9h852c5 0 10 4 10 9v756c0 5-5 9-10 9h-178c-5 0-9 4-9 10z m-413-747h-214c-6 0-10 4-10 9v150c0 5 5 9 10 9h214c5 0 9-4 9-9v-150c0-5-4-9-9-9z m0 207h-214c-6 0-10 4-10 9v158c0 5 5 9 10 9h214c5 0 9-4 9-9v-158c0-5-4-9-9-9z m0 215h-214c-6 0-10 4-10 9v152c0 5 5 9 10 9h214c5 0 9-4 9-9v-152c0-5-4-9-9-9z m285-422h-227c-5 0-9 4-9 9v149c0 5 4 10 9 10h227c5 0 9-5 9-10v-149c0-5-4-9-9-9z m10 212c-1-3-5-6-10-6h-227c-5 0-9 5-9 10v158c0 5 2 9 5 10l6 0c74 0 149 0 223 0 9 0 12-2 12-11 0-52 0-104 0-156 0-2 0-4 0-5z m0 215c0-3-4-5-10-5h-227c-5 0-9 4-9 9v152c0 5 2 10 5 10h6c74 0 149 0 223 0 9 0 12-2 12-12 0-49 0-99 0-149v-5h0z m48-44h219c5 0 9-4 9-9v-158c0-5-4-10-9-10h-219c-6 0-10 5-10 10v158c0 5 4 9 10 9z m219-383h-219c-6 0-10 4-10 9v149c0 6 4 10 10 10h219c5 0 9-4 9-10v-149c1-5-4-9-9-9z m0 422h-219c-6 0-10 4-10 9v152c0 5 4 9 10 9h219c5 0 9-4 9-9v-152c1-5-4-9-9-9z" />
<glyph glyph-name="speech-comments" horiz-adv-x="1000" unicode="&#xeff2;" d="M775 214c63 75 86 161 63 257-21 86-75 149-148 195-89 55-186 74-289 61-100-12-187-52-255-128-66-76-92-163-68-262 10-40 23-78 26-119 3-51-4-99-29-145-4-7-8-13-12-20 1-1 2-1 3-1 66 9 128 28 184 64 5 4 9 6 16 2 87-40 178-52 272-35 94 17 175 58 237 131z m158-232c-5 7-11 14-15 21-26 50-23 101-6 151 18 54 16 106-8 157-7 14-16 27-25 43-2-6-3-9-3-12-9-43-25-83-50-118-70-103-171-158-291-178-22-4-43-5-65-7 0-1 1-2 2-3 5-4 10-7 16-10 93-50 187-54 284-14 4 1 10 2 14 0 31-19 65-32 100-39 14-2 28-4 42-4 11 0 12 4 5 13z" />
<glyph glyph-name="ui-calendar" horiz-adv-x="1000" unicode="&#xec45;" d="M930 676c0 50-28 75-78 74-17-1-20-7-20-22 1-25 1-51 0-76-2-41-26-66-67-69-21-2-43-2-64 0-43 3-68 29-69 73 0 24-1 48 0 72 1 16-4 22-20 22-75-1-150-1-225 0-17 0-20-8-19-22 0-25 0-51 0-76-1-38-23-64-61-68-23-3-47-3-70-1-43 2-66 27-68 70-1 25-1 51 0 76 1 16-5 20-21 21-51 1-78-25-78-77 0-248 0-497 0-746 0-53 23-77 77-77 235 0 471 0 706 0 54 0 77 23 77 77 0 124 0 249 0 373 0 126 0 251 0 376z m-762-177c0 13 6 18 19 18 55 0 110 0 164 0 12 0 17-5 17-16-1-45-1-90 0-135 0-14-8-16-20-16-27 0-54 0-81 0-27 0-54 0-81 0-13 0-18 5-18 18 0 44 0 87 0 131z m200-531c0-14-5-20-19-20-53 1-106 1-159 0-16 0-22 6-22 21 1 43 0 86 0 129 0 13 5 18 18 18 27-1 54 0 81 0 27 0 54-1 81 0 15 0 20-4 20-19-1-43-1-86 0-129z m-23 181c-26 1-52 0-78 0-25 0-51 1-76 0-16-1-24 4-23 21 1 42 1 85 0 127 0 16 6 20 22 20 52-1 104-1 157 0 18 1 21-7 21-23-1-41-1-82 0-123 1-18-6-23-23-22z m75 368c53 0 106 0 159 0 15 1 20-5 20-19 0-43-1-86 0-129 0-16-6-19-20-19-27 1-54 0-81 0-27 0-53 1-79 0-13 0-18 5-18 18 1 44 1 88 0 132 0 14 6 17 19 17z m-19-220c0 15 4 20 19 20 53-1 107-1 160 0 15 0 19-5 19-20 0-43 0-86 0-129 0-14-5-20-19-19-27 1-54 0-81 0-26 0-51 1-76 0-15-1-22 2-22 20 1 42 1 85 0 128z m198-326c1-17-6-23-22-23-52 1-103 1-155 0-15 0-22 5-21 21 1 42 1 84 0 126 0 16 5 22 21 21 26-1 52 0 78 0 26 0 51-1 76 0 16 1 24-4 23-22-1-41-1-82 0-123z m33 527c0 14 5 20 19 19 54 0 107 0 160 0 15 1 22-4 22-20-1-43-1-86 0-129 0-13-5-18-19-18-28 0-56 0-84 0-25 0-50 1-75 0-16-1-24 4-23 22 1 42 1 84 0 126z m200-532c1-13-6-18-18-18-55 1-110 1-165 0-12 0-17 6-17 17 0 45 0 90 0 135 0 15 9 16 20 16 27 0 54 0 81 0 27 0 54-1 81 0 13 0 19-5 18-18 0-44 0-88 0-132z m-23 183c-26 1-52 0-78 0-27 0-54 1-81 0-13 0-18 5-18 18 0 44 1 88 0 131 0 16 6 19 20 19 53 0 106 0 159 0 16 0 22-5 22-21-1-42-1-84 0-125 0-19-8-23-24-22z m-537 468c34 2 60 29 62 64 1 18 0 36 0 53 0 17 1 34 0 51-2 35-27 62-61 65-34 2-64-21-69-56-5-40-5-81 0-120 4-36 35-59 68-57z m458 0c37-2 66 27 69 67 1 16 0 31 0 47h0c0 18 1 36-1 54-2 38-31 65-67 65-35-1-64-29-65-67-1-33-1-66 0-98 1-39 28-67 64-68z" />
<glyph glyph-name="arrow-right" horiz-adv-x="1000" unicode="&#xea5d;" d="M223 422h343l-128 128c-8 9-8 23 0 32l54 53c9 9 23 9 32 0l269-269c9-9 9-23 0-32l-269-269c-9-9-23-9-32 0l-54 53c-8 9-8 23 0 32l137 137h-352c-13 0-23 10-23 23v90c0 12 10 22 23 22z" />
<glyph glyph-name="facebook" horiz-adv-x="1000" unicode="&#xed37;" d="M703 504h-138v91c0 34 22 42 38 42h98v150l-135 1c-149 0-183-112-183-184v-100h-86v-154h86v-437h182v437h122l16 154z" />
<glyph glyph-name="twitter" horiz-adv-x="1000" unicode="&#xed7a;" d="M938 622c-33-15-67-24-104-29 38 22 66 58 79 100-34-21-73-36-114-44-32 35-79 57-131 57-99 0-179-81-179-180 0-14 1-28 4-41-149 8-281 79-370 188-15-27-24-58-24-90 0-63 32-118 80-150-30 1-57 9-81 23v-3c0-87 61-159 144-176-15-4-31-6-48-6-11 0-23 1-33 3 22-71 89-123 167-124-61-49-139-77-223-77-14 0-28 1-43 2 80-51 174-80 276-80 330 0 510 273 510 510 0 8 0 16 0 24 35 25 66 57 90 93z" />
<glyph glyph-name="linkedin" horiz-adv-x="1000" unicode="&#xed4d;" d="M871 788h-741c-36 0-65-28-65-63v-750c0-35 29-63 65-63h741c35 0 64 28 64 63v750c0 35-29 63-64 63z m-542-733h-131v395h131v-395z m-66 449h-1c-44 0-72 30-72 68 0 39 29 69 74 69 45 0 73-30 73-69 0-38-28-68-74-68z m539-449h-131v212c0 53-19 89-66 89-37 0-58-25-68-48-3-9-4-20-4-32v-221h-131s1 358 0 395h131v-56c17 27 49 65 118 65 87 0 151-56 151-177v-227z" />
<glyph glyph-name="instagram" horiz-adv-x="1000" unicode="&#xed46;" d="M499 607c-141 0-257-115-257-256 0-142 116-257 257-257 142 0 257 115 257 257 0 141-115 256-257 256z m0-415c-87 0-159 71-159 159 0 87 72 158 159 158 88 0 159-71 159-158 0-88-71-159-159-159z m210 653h-420c-157 0-284-128-284-285v-419c0-157 127-285 284-285h420c157 0 285 128 285 285v419c0 157-128 285-285 285z m187-704c0-103-84-187-187-187h-420c-103 0-186 84-186 187v419c0 103 83 187 186 187h420c103 0 187-84 187-187v-419z m-136 541c-37 0-68-31-68-68 0-37 30-67 68-67 37 0 67 30 67 67s-30 68-67 68z" />
<glyph glyph-name="pinterest" horiz-adv-x="1000" unicode="&#xed5d;" d="M521 788c-239 0-360-172-360-314 0-87 33-164 103-192 12-5 22-1 25 12 3 9 8 31 11 40 3 13 2 17-8 28-20 24-33 55-33 99 0 127 95 241 248 241 135 0 209-83 209-193 0-145-64-267-160-267-52 0-91 43-79 97 15 64 45 132 45 178 0 41-22 76-68 76-54 0-97-56-97-131 0-47 16-79 16-79s-55-233-65-274c-19-81-2-181-1-191 1-6 8-7 12-3 5 7 69 86 91 165 6 22 35 138 35 138 17-33 68-63 123-63 161 0 271 148 271 345 0 149-126 288-318 288z" />
<glyph glyph-name="phone-circle" horiz-adv-x="1000" unicode="&#xefba;" d="M426 450c-82-47 43-281 132-230l83-143c-38-22-70-36-113-11-122 70-256 301-252 439 1 48 30 67 67 88 16-27 67-116 83-143z m34 4c-9-5-20-2-25 6l-79 136c-5 9-2 20 7 25l41 24c9 5 21 2 26-7l78-135c5-9 2-21-7-26l-41-23z m214-370c-9-6-21-3-26 6l-78 136c-5 9-2 20 7 25l41 24c9 5 20 2 25-7l79-135c5-9 2-21-7-26l-41-23z m-174 704v-1c121 0 230-48 309-128 79-79 128-188 128-309h1-1c0-121-48-230-128-309-79-79-188-128-309-128v-1 1c-121 0-230 48-309 128-79 79-128 188-128 309h0 0c0 121 49 230 128 309 79 79 188 128 309 128v1z m0-53v0 0c-106 0-203-43-272-113-70-69-113-166-113-272h0 0c0-106 43-203 113-272 69-70 166-113 272-113v0 0c106 0 203 43 272 113 70 69 113 166 113 272h0 0c0 106-43 203-113 272-69 70-166 113-272 113z" />
<glyph glyph-name="location-pin" horiz-adv-x="1000" unicode="&#xef79;" d="M481-66c-19 25-38 51-55 76-62 87-118 177-164 273-22 47-43 96-53 147-19 97 4 184 69 257 63 72 144 104 239 100 132-5 247-105 274-235 11-53 8-105-9-157-33-104-84-198-143-288-42-65-88-127-132-190-1-1-2-3-4-4-2-3-12 7-22 21z m165 552c3 75-59 145-134 149-86 5-153-55-157-142-4-75 60-145 136-148 84-4 150 56 155 141z" />
<glyph glyph-name="ui-touch-phone" horiz-adv-x="1000" unicode="&#xec8a;" d="M716 850h-431c-48 0-87-39-87-87v-826c0-48 39-87 87-87h431c48 0 87 39 87 87v826c0 48-39 87-87 87z m-287-36h142c8 0 13-4 13-9 0-4-5-8-13-8h-142c-7 0-13 4-13 8 0 5 6 9 13 9z m71-920c-37 0-67 30-67 67 0 37 30 68 67 68s68-31 68-68c0-37-31-67-68-67z m253 206c0-24-20-44-43-44h-419c-24 0-44 20-44 44v620c0 24 20 43 44 43h419c23 0 43-19 43-43v-620z" />
<glyph glyph-name="listing-box" horiz-adv-x="1000" unicode="&#xef75;" d="M35 314c-19 0-35-16-35-35 0-24 0-48 0-73 0-8 3-15 9-22 8-10 19-13 32-13l179 0v143h-180l-5 0z m925 0h-686v-143c229 0 457 0 685 0 2 0 4 0 6 0 9 0 16 3 22 8 7 6 10 13 13 21v85c0 0-1 0-1 1-6 20-18 28-39 28z m24 423c-5 3-11 5-17 6h-693v-143c230 0 459 0 688 0h3c8 0 15 3 21 8 8 5 11 13 14 21v84c-3 10-8 18-16 24z m-953 5c-19-3-31-17-31-37 0-23 0-46 0-68 0-3 0-6 1-8 2-15 17-29 36-29l183 0v143h-187c-1 0-1-1-2-1z m2-214c-18-1-33-16-33-36 0-23 0-47 0-71 0-2 0-5 1-7 4-17 18-29 36-29h183v143h-180c-2 0-4 0-7 0z m927 0h-686v-143h646c15 0 29 0 44 0 9 0 17 3 23 9 7 6 11 13 13 21v84c0 0-1 0-1 1-6 20-18 28-39 28z m-924-428c-20-1-36-16-36-37 0-23 0-47 0-70 0-10 4-18 10-25 8-9 19-11 31-11 60 0 119 0 179 0v143h-179c-2 0-3 0-5 0z m920 0h-682v-143c229 0 457 0 685 0 3 0 5 0 7 0 11 0 19 5 25 12 5 5 7 11 9 17v84c-9 24-18 30-44 30z" />
<glyph glyph-name="navigation-menu" horiz-adv-x="1000" unicode="&#xefa2;" d="M63 628v-24c0-38 30-69 68-69h738c38 0 68 31 68 69v24c0 38-30 69-68 69h-738c-38 0-68-31-68-69z m68-359h738c38 0 68 31 68 69v24c0 38-30 69-68 69h-738c-38 0-68-31-68-69v-24c0-38 30-69 68-69z m0-266h738c38 0 68 30 68 68v25c0 38-30 68-68 68h-738c-38 0-68-30-68-68v-25c0-38 30-68 68-68z" />
<glyph glyph-name="brand-microsoft" horiz-adv-x="1000" unicode="&#xe90b;" d="M0 374h476v476h-476v-476z m1000 0c0 159 0 317 0 476h-476v-476h476z m-1000-524h476v476l-476 0v-476z m524 0h476v476h-476v-476z" />
<glyph glyph-name="layout" horiz-adv-x="1000" unicode="&#xef5d;" d="M63 702h260v-200h-260v200z m307 0h260v-200h-260v200z m307 0h261v-200h-261v200z m-614-252h875v-200h-875v200z m0-251h398v-201h-398v201z m476 0h399v-201h-399v201z" />
<glyph glyph-name="arrow-left" horiz-adv-x="1000" unicode="&#xea5c;" d="M777 422h-343l128 128c8 9 8 23 0 32l-54 53c-9 9-23 9-32 0l-269-269c-9-9-9-23 0-32l269-269c9-9 23-9 32 0l54 53c8 9 8 23 0 32l-137 137h352c13 0 23 10 23 23v90c0 12-10 22-23 22z" />
<glyph glyph-name="search-1" horiz-adv-x="1000" unicode="&#xed11;" d="M800 146c-7 8-8 20-2 29 44 68 69 148 69 235 0 239-194 434-433 434-239 0-434-195-434-434 0-239 195-434 434-434 93 0 179 30 250 80 8 6 21 6 28-2l155-155c1-1 2-2 3-3 2-1 9-8 17-15l18-19c7-7 19-7 26 0l64 64c7 7 7 19 0 26l-195 194z m-104 62c-14-19-30-36-48-51-58-49-133-79-214-79-183 0-332 149-332 332s149 332 332 332c183 0 331-149 331-332 0-76-26-146-69-202z" />
<glyph glyph-name="mop" horiz-adv-x="1000" unicode="&#xef9f;" d="M761 784l-7 3c-1 0-2 1-3 1-5 0-9-3-11-8l-184-506c-3 1-5 1-8 1-2 0-5 0-7 1-40 1-82-14-113-48l226-44c0 3 0 6-1 9-4 31-26 55-55 69-2 1-5 2-7 3-2 1-4 2-7 3l184 503c2 5-1 11-7 13z m-240-604l-112 22c-41-66-55-147-92-188-14-15-41-53-85-61l238-29 65 97-29-101 62-8s74 146 85 242l-132 26z" />
<glyph glyph-name="bin" horiz-adv-x="1000" unicode="&#xeebb;" d="M251-45c1-24 20-43 44-43h411c23 0 43 19 44 43l29 620h-558l30-620z m342 466c0 9 8 17 18 17h29c10 0 18-8 18-17v-355c0-9-9-17-18-17h-29c-10 0-18 8-18 17v355z m-125 0c0 9 8 17 18 17h29c9 0 17-8 17-17v-355c0-9-8-17-17-17h-29c-10 0-18 8-18 17v355z m-125 0c0 9 8 17 18 17h28c10 0 18-8 18-17v-355c0-9-8-17-18-17h-28c-10 0-18 8-18 17v355z m456 321h-190v36c0 5-4 10-9 10h-199c-5 0-10-5-10-10v-36h-189c-15 0-28-12-28-27v-87h652v87c0 15-12 27-27 27z" />
<glyph glyph-name="filter" horiz-adv-x="1000" unicode="&#xef29;" d="M395 374c9-10 14-23 14-36v-397c0-23 29-36 47-19l112 127c15 18 23 26 23 44v245c0 13 5 26 14 36l322 344c24 26 5 68-30 68h-793c-36 0-55-42-31-68l322-344z" />
<glyph glyph-name="ui-rating" horiz-adv-x="1000" unicode="&#xec7c;" d="M485 812c8 19 22 19 30 0l119-272c8-19 31-36 52-38l295-29c21-2 25-15 10-29l-222-196c-16-14-25-42-20-62l64-290c4-20-7-28-25-18l-256 151c-17 10-47 10-64 0l-256-151c-18-10-29-2-24 18l64 290c4 20-5 48-20 62l-223 196c-15 14-11 27 10 29l295 29c21 2 44 19 53 38l118 272z" />
<glyph glyph-name="ui-rate-blank" horiz-adv-x="1000" unicode="&#xec7a;" d="M767-129c-15 0-29 5-43 13l-220 129c1 0-1 0-4 0s-4 0-5 0l-219-129c-34-21-74-15-96 12-8 11-21 33-13 67l55 249c0 2-2 7-3 9l-190 168c-25 22-35 52-26 79 9 28 34 46 68 49l253 25c2 0 6 4 7 6l102 232c13 31 38 49 67 49s54-18 68-49l101-233c1-1 6-5 8-5l253-25c33-3 58-21 67-49 9-27-1-57-26-79l-191-169c0-1-2-6-2-9l55-248c8-34-5-56-13-67-13-16-32-25-53-25z m-593 542l121-108c31-27 47-77 39-117l-35-159 139 83c23 13 46 15 62 15s39-2 62-15l140-83-35 159c-9 40 7 90 38 117l121 108-161 15c-42 4-84 35-100 73l-65 149-65-149c-16-38-58-69-100-73l-161-15z" />
<glyph glyph-name="random" horiz-adv-x="1000" unicode="&#xefcf;" d="M464 326c15 35 28 63 38 83 8 15 15 28 22 38 7 10 15 20 25 30 10 10 21 17 34 22 12 5 26 7 42 7h125v-93c0-5 2-8 5-11 3-3 7-5 11-5 4 0 8 1 11 4l156 157c3 3 5 6 5 11 0 4-2 8-5 11l-156 156c-4 3-7 5-11 5-5 0-9-2-12-5-2-3-4-6-4-11v-94h-125c-22 0-43-2-62-8-20-5-37-12-52-20-16-8-30-20-44-34s-27-27-37-40c-9-13-20-29-31-49-11-19-20-36-26-51-7-15-15-33-24-54-15-36-28-64-39-84-7-15-15-27-21-38-7-10-16-20-25-30-10-9-21-17-34-22-13-5-27-7-43-7h-109c-4 0-8-1-11-4-3-3-4-7-4-12v-93c0-5 1-9 4-12 3-2 7-4 11-4h110c22 0 43 3 62 8 20 5 37 12 52 21 15 8 30 19 44 33s26 28 36 41c10 13 20 29 31 48 11 20 20 37 27 52 6 14 15 32 24 54z m-386 180h110c14 0 27-2 39-7 13-4 23-10 31-17 8-7 17-16 25-27 8-12 15-23 20-31 5-9 11-21 18-36 25 59 47 104 67 133-52 74-119 110-200 110h-110c-4 0-8-1-11-4-3-3-4-7-4-11v-94c0-5 1-8 4-11 3-3 7-5 11-5z m699-208c-4 4-7 5-11 5-5 0-9-1-12-4-2-3-4-7-4-11v-94h-125c-14 0-28 2-40 7-12 5-22 10-31 17-8 7-16 16-24 28-9 11-15 22-20 31s-11 20-18 35c-25-59-48-103-67-133 9-13 18-24 28-34 9-10 18-19 26-26s19-14 29-20c11-5 20-10 29-14 8-3 18-7 30-9 13-2 23-4 32-5 8-1 20-2 34-2 15-1 27-1 36-1 9 0 22 0 39 1 18 0 32 0 42 0v-94c0-4 2-8 5-11 3-3 6-5 11-5 4 0 8 2 11 5l156 156c3 3 4 7 4 11s-1 9-4 12l-156 155z" />
<glyph glyph-name="listine-dots" horiz-adv-x="1000" unicode="&#xef74;" d="M984 737c-5 3-11 5-17 6h-766c20-18 33-43 33-72s-13-53-33-71c254 0 507 0 761 0h3c8 0 15 3 21 8 8 5 11 13 14 21v84c-3 10-8 18-16 24z m-826-66c0-43-35-79-79-79s-79 36-79 79c0 44 35 80 79 80s79-36 79-80z m809-142h-766c20-18 33-44 33-72s-13-54-33-72c254 0 507 0 761 0h3c8 0 15 3 21 8 8 6 11 13 14 22v84c-3 9-8 18-16 23-5 4-11 5-17 7z m-809-72c0-44-35-79-79-79s-79 35-79 79c0 44 35 79 79 79s79-35 79-79z m809-143h-766c20-17 33-43 33-71s-13-54-33-72c254 0 507 0 761 0h3c8 0 15 3 21 8 8 5 11 13 14 21v84c-3 10-8 18-16 24-5 4-11 5-17 6z m-809-71c0-44-35-80-79-80s-79 36-79 80c0 43 35 79 79 79s79-36 79-79z m809-143h-766c20-18 33-43 33-72s-13-54-33-71c254 0 507 0 761 0h3c8 0 15 3 21 8 8 5 11 13 14 21v84c-3 10-8 18-16 24-5 3-11 5-17 6z m-809-72c0-43-35-79-79-79s-79 36-79 79c0 44 35 80 79 80s79-36 79-80z" />
<glyph glyph-name="ui-call" horiz-adv-x="1000" unicode="&#xec46;" d="M664-149c-39-1-90 32-125 62-91 78-153 179-210 283-67 118-128 240-163 372-14 56-23 113-8 170 12 44 37 74 84 83 45 7 89 19 133 27 29 6 46-3 57-30 29-70 57-139 84-209 11-28 5-46-19-62-22-15-45-28-66-45-8-6-15-20-13-28 23-92 66-173 128-245 9-11 19-14 33-7 23 11 47 20 71 30 29 11 48 6 65-19 41-61 82-122 122-183 19-29 17-48-9-73-32-31-38-42-164-126z" />
<glyph glyph-name="ui-contact-list" horiz-adv-x="1000" unicode="&#xec50;" d="M785-147c26 28 51 54 76 81 48 54 42 114-15 156-47 35-93 69-141 101-54 36-103 23-136-32-13-21-24-43-35-64-105 52-201 151-256 254 23 13 46 25 68 38 52 33 64 80 31 131-36 56-76 109-116 163-15 20-38 29-75 31 0 26-3 52 1 77 5 36 36 61 73 61 209 0 417 0 626 0 46 0 77-35 77-85 0-107 0-213 0-320v-476c0-13 1-27 0-40-3-50-33-79-83-79-30 0-60 0-90 0-1 0-2 1-5 3z m-183 441c62 0 124 0 185 0 14 0 29 2 28 19-1 15-16 19-30 18-10 0-20-2-30-2-50 1-100 2-150 2-62 0-124 0-186 0-12 0-26-1-27-18-1-17 12-19 25-19 62 0 124 0 185 0z m41 344l147 0c12 0 24 3 24 18 0 16-13 18-26 18l-289 0c-14 0-26-2-25-19 0-16 12-17 25-17 48 0 96 0 144 0z m-2-163c49-1 98 0 147-1 13 0 26 3 26 19 0 16-14 18-27 18l-288 0c-13 0-25-2-25-18-1-16 11-19 25-19 47 1 95 1 142 1z m15-622c-62 6-123 30-180 64-155 93-280 217-373 372-30 49-53 102-63 160-9 55 1 105 46 144 23 19 44 41 67 60 32 27 62 24 87-10 34-46 67-92 99-140 25-37 19-62-21-85-21-12-42-21-64-32-26-13-32-28-15-52 28-40 56-80 88-117 52-62 113-114 183-157 35-21 45-18 63 19 9 19 18 38 29 56 22 39 46 46 83 20 47-31 92-65 138-98 7-5 13-11 18-19 15-22 16-45-2-65-25-30-52-58-79-86-27-27-62-33-104-34z m-472 264c99-108 204-199 335-265-8-1-13-2-17-2-78 0-156 0-234 0-52 0-84 32-84 83v184z" />
<glyph glyph-name="ghost" horiz-adv-x="1000" unicode="&#xed3d;" d="M63 461h875v-222h-875v222z m0 327h537v-187h-537v187z m688 0h187v-185h-187v185z m-688-675h364v-201h-364v201z m515 0h360v-201h-360v201z" />
<glyph glyph-name="flag" horiz-adv-x="1000" unicode="&#xef2f;" d="M829 376c-23 132-47 263-70 394-1 7-5 10-11 11-65 15-127 3-188-21-43-17-86-37-129-55-42-17-86-30-132-29-18 1-36 3-54 5l-8 41c0 3-3 4-5 4l-58-10c-3-1-4-3-4-6l141-794c1-2 3-4 6-3l58 10c2 0 4 3 4 5l-61 342c60-12 118-4 174 19 47 18 92 39 138 58 46 18 92 31 142 28 19-1 38-4 58-6 0 2-1 5-1 7z" />
<glyph glyph-name="ui-block" horiz-adv-x="1000" unicode="&#xec41;" d="M854 704c-196 195-512 195-708 0-195-196-195-512 0-708 196-195 512-195 708 0 195 196 195 512 0 708z m-591-117c111 111 280 128 408 51l-459-459c-76 128-60 297 51 408z m474-474c-111-111-280-128-408-51l459 459c77-128 60-297-51-408z" />
<glyph glyph-name="exclamation-tringle" horiz-adv-x="1000" unicode="&#xef1b;" d="M937 4c-2 12-6 23-11 33-11 20-22 40-33 59-113 204-226 407-339 610-6 12-14 23-23 33-18 17-41 18-60 1-8-8-16-18-21-28-125-225-250-450-375-675-4-6-7-13-9-19-11-33 4-59 37-67 8-3 18-4 27-4h739c7 0 14 1 21 2 31 3 51 26 47 55z m-438 552c18 0 35-1 53-4l-7-327c-15-3-30-4-45-4-15 0-30 1-45 4l-7 327c18 2 34 4 51 4z m50-485c-17-2-33-4-49-4-16 0-33 2-49 4-3 17-4 33-4 49 0 16 1 33 4 50 16 2 32 4 48 4 17 0 33-2 50-4 3-17 4-33 4-49 0-17-1-33-4-50z" />
<glyph glyph-name="shield" horiz-adv-x="1000" unicode="&#xefe6;" d="M851 638c-121 32-239 73-345 148-3 2-7 2-10 0-107-75-225-116-347-148-3-1-6-3-6-5 0-1 0-3 0-4 2-80 4-160 8-240 4-98 34-185 87-262 68-98 156-166 257-214 4-1 10-1 14 1 81 38 154 91 216 163 82 93 124 206 128 337 1 42 3 84 4 126 1 30 1 60 0 90 0 3-2 7-6 8z" />
<glyph glyph-name="water-drop" horiz-adv-x="1000" unicode="&#xf027;" d="M767 287l-254 488c-8 17-22 17-31 0l-252-488c-8-17-20-45-23-63-27-176 144-312 292-312 148 0 328 133 293 312-4 18-16 46-25 63z m-283-312s-5 1-15 2c-2 1-5 1-8 2-3 1-7 1-11 2-8 2-18 5-26 8-5 2-9 4-14 6-5 2-9 4-14 7-5 2-10 5-15 8-8 5-21 14-28 20-5 4-9 7-14 12-9 8-16 17-24 26-7 10-14 19-20 30-3 4-5 9-8 15-3 8-9 22-11 30-2 5-4 10-5 15 0 2-1 4-1 7-1 3-2 9-3 13l0 7c-2 8-2 16-2 22 0 7 0 13 0 18 1 3 1 5 1 7 0 4 1 4 2 0 0-2 1-4 1-7 1-5 2-10 4-16 2-7 4-14 7-21 1-2 2-4 3-6 1-3 3-8 5-11 1-2 2-4 3-6 2-4 4-8 7-12 4-6 12-16 17-23 3-3 6-7 10-10 3-4 7-7 11-10 6-6 16-13 23-18s18-10 25-13c7-3 18-7 24-9 4-1 8-2 13-3 3-1 7-1 11-2 3 0 7-1 10-1 7-1 12-1 17 0 3 0 5 0 7 0 3 0 5 0 8 0 9 1 15 1 15 1 25 2 47-16 49-41 2-26-17-48-42-50-4 0-8 0-12 1z" />
<glyph glyph-name="trash" horiz-adv-x="1000" unicode="&#xee09;" d="M845 617c-115-1-230-1-345-1v0h-346c-12 0-23 2-20-17 17-108 33-215 50-323 16-107 35-213 48-319 7-56 54-108 118-107 99 2 198 0 298 0 66 1 109 39 119 105 20 133 40 266 60 399 12 80 24 161 37 241 3 19-3 22-19 22z m-317-150c-1-161 0-322 0-483h-56c0 81 0 161 0 241h1c0 82 0 165-1 247 0 3 0 5 0 7h55c1-4 1-7 1-12z m-289 12h55c1-4 2-9 3-14 14-114 30-227 46-341 6-46 14-93 19-140h-55c-15 108-30 216-45 324-8 56-15 113-23 169l0 2z m494-200c-14-98-29-196-41-295h-55c23 162 44 324 66 485 1 3 1 7 1 10h57c-1-4-2-9-2-12-9-63-18-126-26-188z m209 413c-11 26-29 47-49 66-21 21-45 33-77 33-61-2-122 0-182-1-14 0-21 2-25 17-8 30-28 43-59 43-34 0-68 0-102 0-30 0-50-14-58-43-4-14-10-18-24-17-61 1-122 1-182 0-54 0-117-53-129-105-4-17 2-26 18-29 8-1 16-1 23-1 134 0 268 0 402 0h182l185 0c18 0 36-1 54 1 25 1 32 14 23 36z" />
<glyph glyph-name="camera" horiz-adv-x="1000" unicode="&#xeecf;" d="M819 567h-124v68c0 32-22 58-48 58h-294c-26 0-48-26-48-58v-68h-9c-39 0-79 0-118 0-65 0-115-50-115-115v-329c0-66 49-116 115-116h642c7 0 14 0 21 2 59 10 97 56 97 116v324c0 69-50 118-119 118z m-439 46c0 22 18 39 39 39h162c21 0 39-17 39-39v-8c0-21-18-39-39-39h-162c-21 0-39 18-39 39v8z m118-527c-110 0-200 92-199 203 1 110 91 200 202 199 111-1 201-91 200-201-1-112-91-202-203-201z m2 336c-74 0-136-60-136-133 0-76 61-137 135-138 74 0 137 62 136 136 0 75-60 135-135 135z" />
<glyph glyph-name="share" horiz-adv-x="1000" unicode="&#xefe5;" d="M752 251c-58 0-110-29-140-74l-214 119c12 23 19 50 19 78 0 28-7 54-19 77l163 71c31-44 82-73 139-73 94 0 170 76 170 169s-76 170-170 170-169-76-169-170c0-19 3-37 9-55l-169-73c-31 33-75 54-123 54-94 0-170-76-170-170 0-93 76-169 170-169 48 0 91 20 122 53l221-123c-5-16-8-34-8-53 0-94 76-169 169-169s169 76 169 169-75 169-169 169z" />
<glyph glyph-name="share-boxed" horiz-adv-x="1000" unicode="&#xefe4;" d="M865 788h-730c-40 0-72-33-72-73v-730c0-40 32-73 72-73h730c40 0 73 33 73 73v730c0 40-33 73-73 73z m-196-731c-63 0-114 51-114 113 0 13 3 25 6 36l-148 82c-21-22-49-35-82-35-62 0-113 51-113 113 0 63 51 114 113 114 33 0 62-14 83-36l113 49c-4 11-6 24-6 37 0 62 51 113 113 113 63 0 114-51 114-113 0-63-51-114-114-114-38 0-72 19-93 49l-109-47c8-16 13-34 13-52 0-19-5-37-14-53l144-79c21 30 55 50 94 50 63 0 113-51 113-114 0-62-50-113-113-113z" />
<glyph glyph-name="quote-left" horiz-adv-x="1000" unicode="&#xefcd;" d="M398-18h-267c-38 0-68 31-68 69v242c0 115 23 205 71 272 39 53 100 102 183 146 34 17 77 2 94-31l24-44c17-34 4-74-29-93-39-23-68-45-87-68-14-17-25-35-32-55-13-33 17-62 55-62h56c38 0 69-31 69-69v-238c0-38-31-69-69-69z m471 0h-267c-38 0-69 31-69 69v242c0 115 24 205 72 272 39 53 100 102 183 146 34 17 77 2 94-31l23-44c18-34 4-74-28-93-40-23-68-45-87-68-14-17-25-35-32-55-13-33 17-62 55-62h56c38 0 69-31 69-69v-238c0-38-31-69-69-69z" />
<glyph glyph-name="reply-all" horiz-adv-x="1000" unicode="&#xefd3;" d="M314 530v81c0 8-4 10-10 4l-237-237c-6-6-6-15 0-20l237-237c6-6 10-4 10 4v81c0 8-4 19-10 25l-127 127c-6 5-6 15 0 20l127 127c6 6 10 17 10 25z m221-37v118c0 8-5 10-10 4l-237-237c-6-5-6-15 0-20l237-237c5-6 10-4 10 4v122c0 8 7 14 15 14 170-3 293-58 381-176 5-6 8-5 6 3-39 175-147 348-388 388-8 2-14 9-14 17z" />
<glyph glyph-name="ui-reply" horiz-adv-x="1000" unicode="&#xec7f;" d="M740 116c-129-129-338-129-467 0-128 129-128 338 0 467 111 111 282 126 409 46l-108-109 420-90-90 420-100-99c-195 145-473 130-651-48-195-195-195-511 0-707 196-195 512-195 707 0 49 49 85 105 110 165l-168 41c-16-31-36-60-62-86z" />
<glyph glyph-name="cart" horiz-adv-x="1000" unicode="&#xeed2;" d="M893 569l-631 0-27 91c-4 14-15 25-28 28l-93 25c-4 1-7 2-11 2-18 0-34-13-39-30-3-11-2-22 4-31s14-17 25-20l70-19 143-516c-20-10-33-31-33-54 0-33 27-61 60-61s60 28 60 61c0 1 0 2 0 2h292c0-1 0-1 0-2 0-33 27-61 60-61s60 28 60 61c0 31-23 56-53 60-72 12-368 26-368 26l-9 38h368c19 0 36 13 41 31l80 281h29c25 0 45 19 45 44 0 24-20 44-45 44z m-469-306h-70c-1 0-4 0-5 4-2 6-4 13-4 13l-55 191c0 1 0 2 1 3 1 1 1 1 2 1h84c2 0 3-1 3-2l46-205 0-1c1 0 1-1 1-1 0-2-2-3-3-3z m176 209l-37-207c-1-1-2-2-3-2h-52c-2 0-3 1-3 2l-38 206c0 1 0 2 1 3 0 1 1 1 2 1h127c1 0 2 0 2-1 1-1 1-2 1-2z m177-1l-59-206c0-1-1-2-3-2h-71c-1 0-2 0-3 1 0 1-1 2 0 3l46 206c0 1 1 2 3 2h84c1 0 2 0 2-1 1-1 1-2 1-3z" />
<glyph glyph-name="book" horiz-adv-x="1000" unicode="&#xead2;" d="M391 140c39-13 77-27 105-59v13c0 150 0 300 0 450 0 15-5 25-16 33-2 2-4 3-6 4-30 22-65 34-100 44-72 21-147 32-222 39-16 1-33 1-50 2v-480c29-2 57-4 86-6 69-7 137-19 203-40z m113-47v-12c23 27 53 41 85 52 86 31 177 44 269 50 13 1 27 2 40 2v481c-7 0-13 0-19-1-38-3-77-6-115-11-59-8-117-20-173-40-28-11-56-23-78-43-6-6-9-12-9-21 0-152 0-304 0-457z m409 495v-417c-3-1-5-1-7-1-89-2-176-13-261-35-54-14-107-29-145-70-19 23-46 36-74 47-89 34-183 48-278 56-20 1-40 2-61 3v417h-24v-455c7 0 14-1 21-1 85-3 168-12 251-30 59-13 119-26 166-68 19 20 44 32 70 42 93 32 191 45 290 53 25 2 51 3 77 4v455h-25z" />
<glyph glyph-name="bag-alt" horiz-adv-x="1000" unicode="&#xeeab;" d="M995 570c-5 67-53 117-120 118-39 0-78 0-117 0-37-1-37-1-37 35 0 75-49 124-125 125-32 0-65 0-97 0-35 0-70 0-105 0-54-1-99-36-114-88-5-19-4-37-3-55 0-15-5-18-19-18-43 1-85 0-128 0-78 0-121-49-127-128-4-55-4-105-1-163 3-48 15-81 51-107 3-2 6-4 8-7 105-82 227-118 358-131 16-1 21 3 21 19 3 37 27 64 57 65 30 1 53-22 60-60 1-3 2-6 2-9-1-14 4-16 18-16 51 5 102 14 152 28 94 27 180 68 249 140 9 10 16 19 18 34 8 74 3 147-1 218z m-650 113c0 62 69 113 154 113 84 0 153-51 153-113h-307z m155-472c-24 1-45-29-44-63 0-32 20-60 43-60 24 0 43 27 43 61 0 34-19 61-42 62z m496 86l-1 0-75-68c-61-41-163-90-325-114 0 0-22 2-37-7-15-10-16-39-57-43v0h-2v0c-42 4-42 33-58 43-15 9-36 7-36 7-163 24-265 73-325 114l-76 68 0 0v0l0 0 0-49v-249c-1-12 0-22 1-31 0-3 1-6 1-9 16-103 106-102 106-102s7 0 19-1c59-4 214-5 368-4l0 0 1 0v0l0 0 0 0v0l0 0 0 0c155-1 309 0 369 4 12 1 18 1 18 1s91-1 106 102c1 3 1 6 1 9 1 9 2 19 2 31v249l0 49 0 0v0z m-496-445l0 0 0 0 0 0z m0 0l0 0-1 0 1 0z" />
<glyph glyph-name="key-hole" horiz-adv-x="1000" unicode="&#xef58;" d="M63 621v-542c0-92 74-167 166-167h542c92 0 167 75 167 167v542c0 92-75 167-167 167h-542c-92 0-166-75-166-167z m315-511l73 262c-45 18-77 62-77 114 0 67 55 122 122 122s123-55 123-122c0-46-26-86-63-107l70-269h-248z" />
<glyph glyph-name="book-alt" horiz-adv-x="1000" unicode="&#xead1;" d="M782 849v-146h121v-852c-8 0-15-1-23-1-196 0-393 0-589 0-104 0-192 83-193 186-2 222-2 445 0 668 0 87 62 144 153 145 120 2 240 1 360 1 49 0 97 0 146 0 7 0 15-1 25-1z m78-944v747h-78v-538h-27c-155 0-310 1-465-1-28-1-58-9-85-20-40-19-57-60-50-109 5-39 33-66 77-74 14-3 28-5 42-5 151 0 302 0 454 0h132z m-380 639c-47 0-94 0-141 0-15 0-28-3-28-20 0-18 13-22 28-21 94 0 188 0 281 0 16 0 31 3 30 22 0 17-15 19-29 19-47 0-94 0-141 0z m0 67c47 0 94 1 141 0 15 0 29 2 29 20 1 19-14 22-30 22-93 0-186 0-279 0-15 0-30-3-30-22 0-19 16-20 31-20 46 1 92 0 138 0z m0-176c-47 0-95 0-143 0-14 0-26-3-26-20 0-17 12-20 27-20 95 0 191 0 286 0 14 0 27 4 26 20 0 17-12 20-27 20-47 0-95 0-143 0z m305-445h-502c-6 0-14-2-18 1-8 6-17 15-18 23-1 6 11 14 18 20 3 2 10 1 14 1 156 0 312 0 467 0 42 0 42 0 39-45z" />
<glyph glyph-name="lock" horiz-adv-x="1000" unicode="&#xef7a;" d="M766 403v120c0 146-119 265-265 265-147 0-265-119-265-265v-120h-57v-491h643v491h-56z m-431 120c0 91 75 165 166 165 91 0 165-74 165-165v-120h-331v120z m211-476h-91l14 135c-17 10-28 29-28 50 0 33 27 60 60 60 33 0 59-27 59-60 0-21-11-40-28-50l14-135z" />
<glyph glyph-name="options" horiz-adv-x="1000" unicode="&#xefb0;" d="M933 242c-17 15-34 30-50 46-36 36-36 94 0 129 15 15 31 29 47 44 5 4 6 12 4 18-13 31-26 61-39 92 0 2-1 3-1 4-3 2-7 5-10 4-23 0-46-3-68-3-49 0-89 38-92 86-1 24 1 48 2 72 1 7-1 11-8 13-32 13-63 26-95 39-7 3-11 1-15-4-15-17-29-33-45-49-36-36-94-36-130 0-16 16-31 33-46 50-3 4-6 5-12 3-32-14-64-28-97-41-6-3-8-6-8-13 2-22 4-44 4-66 0-49-38-90-86-92-25-1-49 1-74 2-6 0-8-2-11-7-13-32-26-65-39-97-3-6-2-9 3-13 16-15 33-29 48-44 37-36 39-93 3-130-15-16-31-31-48-46-4-4-6-12-4-17 13-31 26-62 39-94 3-7 7-8 13-8 22 2 45 4 67 4 48 0 89-38 91-86 1-24-1-49-2-73 0-6 1-9 7-12 32-13 64-26 96-39 7-3 11-2 15 4 14 16 29 33 44 48 37 37 95 37 132 0 15-15 29-31 43-46 4-5 12-6 18-4 31 13 62 26 93 39 6 3 8 6 8 12-2 23-4 45-4 67 0 49 38 90 87 92 24 1 48-1 73-2 6 0 9 2 11 7 13 33 26 65 39 97 3 6 2 9-3 14z m-429-57c-86-1-157 62-167 145-12 93 55 173 142 184 94 11 174-56 185-143 12-97-61-182-160-186z m-13 236c-37-5-66-39-61-80 4-35 35-63 72-62 43 1 74 38 69 80-5 38-39 67-80 62z" />
<glyph glyph-name="external-link" horiz-adv-x="1000" unicode="&#xef1f;" d="M808 351h-67c-11 0-21-9-21-21v-280c0-12-9-21-21-21h-503c-12 0-21 9-21 21v505c0 12 9 21 21 21h280c12 0 21 9 21 21v65c0 12-9 21-21 21h-392c-12 0-21-9-21-21v-726c0-11 9-21 21-21h724c12 0 21 10 21 21v394c0 12-9 21-21 21z m16 433h-249c-8 0-15-7-15-15v-83c0-9 7-15 15-15h127c8 0 10-5 5-11l-212-211c-6-6-6-16 0-21l86-86c6-6 15-6 21 0l212 212c6 6 10 4 10-5v-128c0-8 7-15 15-15h84c8 0 15 7 15 15v363c0 0-114 0-114 0z" />
<glyph glyph-name="sign-in" horiz-adv-x="1000" unicode="&#xefe8;" d="M770 370l-322 330c-10 11-27 11-38 0l-63-65c-11-11-11-29 0-40l151-156h-409c-14 0-26-12-26-28v-111c0-15 12-27 26-27h421l-163-168c-11-11-11-28 0-39l63-66c11-11 28-11 38 0l322 331c10 10 10 28 0 39z m130 252h-166v-76h128v-392h-128v-75h166c21 0 38 16 38 37v468c0 21-17 38-38 38z" />
<glyph glyph-name="brand-windows" horiz-adv-x="1000" unicode="&#xe959;" d="M2 708l407 56 0-393-407-2 0 339z m407-382l0-394-407 56v340l407-2z m49 445l540 79v-474l-540-4v399z m541-449l-1-472-540 76 0 397 541-1z" />
<glyph glyph-name="brand-apple" horiz-adv-x="1000" unicode="&#xe8a7;" d="M551 774c36 43 97 74 147 76 6-59-17-117-52-160-35-42-92-75-148-70-7 57 21 117 53 154z m285-800c-41-61-84-121-152-123-67-1-88 40-165 40-76 0-100-38-163-41-65-2-115 66-157 127-86 124-151 350-63 503 43 76 121 125 206 126 64 1 125-44 164-44 40 0 113 54 191 46 32-1 124-13 182-99-5-3-109-64-107-190 1-152 132-202 133-203-1-3-21-71-69-142z" />
<glyph glyph-name="brand-android-robot" horiz-adv-x="1000" unicode="&#xe8a4;" d="M500 515h270c8 0 8 0 8-7v-392c0-38-29-68-67-69-13-1-26 0-39 0-7 0-7 0-7-7 0-43 0-85 0-127 0-32-24-59-56-63-31-3-60 18-67 50-1 4-1 9-1 14 0 42 0 84 0 126 0 7 0 7-6 7-24 0-48-1-71 0-5 0-6-2-6-6 0-43 0-86 0-129 0-25-15-48-38-57-24-10-51-4-68 14-12 12-17 26-17 43-1 43-1 86 0 129 0 4-2 6-6 6-16 0-32-1-49 0-32 4-58 33-58 65 0 39 0 77 0 115v281c0 7 0 7 7 7h271z m-1 21c-90 0-181 0-272 0-4 0-6 1-5 6 1 28 6 56 17 82 15 38 38 70 69 97 16 14 33 26 51 36 4 2 4 3 2 6-13 23-25 46-38 69l-2 4c-3 6-1 11 3 13 5 2 10 1 12-5l13-22c9-17 18-33 27-50 2-5 4-5 9-3 42 17 85 24 129 22 36-1 70-9 103-23 3-2 4 0 6 2 13 24 26 48 39 72 2 3 3 7 7 7 3 1 7 1 9-2 3-3 3-7 1-11-7-12-14-25-21-38-7-12-13-23-19-35-2-3-2-5 2-7 44-23 79-56 104-99 20-34 31-71 33-110 0-11 0-11-11-11-90 0-179 0-268 0z m-125 148c-14 0-24-11-24-24 0-13 11-23 23-23 13 0 24 10 24 23 0 13-11 24-23 24z m229-23c0-13 10-24 23-24 13 0 24 10 24 23 0 13-10 23-23 24-13 0-24-10-24-23z m-403-326v-128c0-31-22-57-51-62-32-4-61 14-70 44-2 7-2 13-2 20v254c0 31 18 55 47 62 39 10 76-20 76-59 0-44 0-87 0-131z m723 1c0-45 0-89 0-133-1-35-34-62-68-58-34 4-56 29-56 63v257c0 35 29 63 63 62 34-1 61-28 61-63 0-43 0-85 0-128h0z" />
<glyph glyph-name="brand-hp" horiz-adv-x="1000" unicode="&#xe8e5;" d="M500 850h-2c-35-101-72-201-108-302 26-1 52 0 78-1 19-1 39-8 49-25 12-19 12-43 4-63-35-99-71-198-106-297-31 0-62 0-93 0-4 0-9 0-13 1 40 109 78 218 117 327l-56 0c-3-6-4-12-7-18-35-101-71-201-107-302-2-2-1-8-5-8-30 0-60 0-89 0-5 0-11-1-16 1l241 674c-222-51-387-250-387-487 0-233 159-429 375-484 80 225 161 451 241 677 1 1 2 5 3 6 50 0 100 0 149 0 17 0 33 2 49-3 18-5 35-18 41-37 4-14 1-30-4-44-32-93-65-185-98-277-8-24-33-39-57-40l-116 0c-36-99-71-198-106-297 7-1 15-1 23-1 276 0 500 224 500 500 0 276-224 500-500 500z m158-645c33 96 68 191 102 286-15 0-29 0-43 0-4 0-10 2-13-2-34-95-68-190-102-284 19 0 38-1 56 0z" />
<glyph glyph-name="brand-huawei" horiz-adv-x="1000" unicode="&#xe8e8;" d="M569 145s-2-2 0-4c0 0 2-1 4 0 44 21 225 114 301 187 0 0 47 38 50 100 4 85-80 164-80 164s-159-191-276-447h1z m-451-28c29-13 58-14 58-14 5-1 181 0 228 0 2 0 3 3 3 3 2 2-1 4-1 4-133 90-392 229-392 229-24-73 8-132 8-132 33-69 96-90 96-90z m8 211c76-73 258-167 301-188 0 0 3 0 4 1 0 0 2 1 1 4-116 254-275 447-275 447s-87-83-81-165c4-62 50-99 50-99z m400-159c0-3 3-3 3-3 2-1 4 2 4 2 29 42 160 237 187 356 0 0 15 58 0 97 0 0-19 73-100 93 0 0-23 6-48 9 0 0-90-116-47-554h1z m-60-1s2-3 4-2c0 0 3 0 3 3h1c43 438-47 554-47 554-24-3-48-9-48-9-81-20-99-93-99-93-15-39 0-97 0-97 26-119 157-314 186-356z m-67-87l-304-10c33-59 88-105 146-91 40 10 131 73 160 95 3 2 2 4 2 4-1 2-4 2-4 2z m590 160c3 9 4 18 5 27 0 9 2 19 0 29 0 6-1 13-2 20-2 7-3 17-7 22h0c-19-10-38-20-56-31-24-13-48-26-71-39-40-22-80-45-119-69-15-7-29-17-43-25-8-6-35-22-41-25-10-8-22-13-31-20-11-5-20-14-30-19-5-6 2-8 7-7h236c40 6 78 23 106 53 11 11 21 25 29 39 8 14 14 29 17 45z m-84-171l-305 11s-2 0-3-2c0 0 0-4 1-4 29-22 118-83 160-95 0 0 79-27 147 90z" />
<glyph glyph-name="check-circled" horiz-adv-x="1000" unicode="&#xeed7;" d="M687 551c-3 3-9 3-13-1-83-88-166-176-249-264-4-4-10-4-13 0l-89 88c-3 4-9 4-13 0l-53-53c-4-4-4-10 0-14l158-158c3-3 9-3 13 1 105 111 210 223 316 335 3 4 3 9-1 13-18 18-37 35-56 53z m-187 237c-242 0-437-196-437-438s195-438 437-438 438 196 438 438-196 438-438 438z m0-807c-203 0-369 166-369 369s166 369 369 369c204 0 369-165 369-369s-165-369-369-369z" />
<glyph glyph-name="brand-linux" horiz-adv-x="1000" unicode="&#xe900;" d="M924 1c0 0-1-1-1-2 0-4-2-8-5-12-6-7-13-12-22-16-4-1-9-4-14-6-5-2-10-5-15-7-20-9-38-21-55-35-16-14-33-28-49-42-9-8-19-16-30-22-11-7-23-9-35-9-7 0-14 1-21 2-17 3-32 10-44 23-5 4-8 10-11 15-2 2-3 3-5 3l-27 3c-11 1-22 2-33 3-27 2-54 4-81 3-19-1-37-3-55-9-7-2-15-5-22-8-2 0-3-2-3-3-9-9-19-17-31-22-11-4-23-5-35-4-21 3-41 9-61 16-33 12-66 22-100 30-11 2-21 4-32 6-14 2-27 5-40 10-3 2-7 3-10 5-10 7-13 14-11 26 1 6 5 12 8 17 4 7 8 14 11 21 6 10 6 21 4 33-2 15-4 30-6 46-1 8 0 16 2 25 3 10 9 17 17 23 5 3 9 4 14 4 11 0 22 0 33 0 6 0 11 2 17 5 1 1 2 2 2 3 2 6 5 12 7 17 2 6 4 11 8 16-5 7-4 14-3 22 1 15 6 29 13 43 7 12 13 25 20 37 15 27 26 55 33 84 3 10 5 20 9 29 6 19 17 35 30 50 14 17 28 33 41 50 7 9 13 18 18 27 10 18 13 37 12 57-2 21-5 43-7 64-2 30-4 60-3 90 0 20 3 40 9 59 7 21 19 38 35 52 12 11 26 17 41 21 13 3 25 5 38 5 2 0 3 1 5 1h27l18-3c1-1 1 0 1 0 4-1 8-1 11-2 19-4 36-12 52-22 8-6 15-12 22-20 8-10 15-21 21-32 1 0 1-1 1-1 6-17 11-34 14-52 2-14 4-29 6-44 1-9 2-18 3-26 1-18 2-35 5-53l1-5c2-9 3-18 5-28 2-10 4-19 9-29 3-6 7-12 10-18 4-7 8-14 12-21 12-16 23-33 35-50 4-5 8-10 12-15 23-28 43-57 56-91 2-3 3-7 5-10 7-15 12-30 16-46 4-18 7-35 8-53 2-22 1-43-3-64-2-8-4-15-5-23 0 0 1-1 2-1 4 0 8-3 10-6 2-4 3-7 5-10 4-13 6-26 8-39 1-10 5-17 13-24 3-2 6-5 10-7 5-4 10-7 15-10 5-2 10-5 15-7 10-5 17-12 20-23l0-14z m-528 514c-1-5-1-10-3-14s-2-9-4-13c-3-9-7-17-12-25-7-14-15-28-20-43-3-10-6-19-8-28 0-5-1-9-3-13-9-19-18-37-28-55-11-23-21-46-28-70-7-25-11-51-7-78 0-1 0-1 0-2l-1 0c0 0-1 0-1 0-8 6-14 14-17 23-2 7-3 14-3 22 0 10 1 20 4 29 4 22 13 43 22 64 6 12 12 24 21 36 1 2 3 5 5 7 2 2 2 3 0 4-3 1-5 2-7 3-2-2-4-4-5-6-4-5-7-10-10-16-8-18-17-37-25-56-4-8-7-17-9-26-5-16-8-32-6-49 2-14 6-27 16-37 6-6 12-11 18-17 16-14 34-26 53-38 3-2 7-4 11-7 14-13 29-25 41-40 5-6 9-12 12-18 3-3 3-7 3-11 0-5-2-10-6-14-4-4-8-8-13-12-4-3-10-6-16-6 0 0-1 0-2-1 0-1 0-3 1-4 2-4 5-8 7-13 2-5 6-10 11-14 5-4 11-7 18-9 12-5 25-8 38-9 24-2 47 0 70 5 50 12 89 41 119 82 0 1 1 3 1 4 0 9 1 19-3 29 0 0 0 1 0 2 0 13 0 27 3 41 2 10 6 19 13 26 5 5 11 7 17 7 6 0 11-2 16-4 1-1 2-2 4-3 1 10 2 20 2 29 1 20 1 39 1 59 0 26-4 52-11 77-4 14-10 28-19 40-11 16-20 32-29 49 0 1-1 1-1 2-3 12-6 23-6 36 0 1-1 3-1 5-9 15-17 31-25 47-1 1-1 2-2 4l-16 38c-1 1-2 3-2 4-9-7-18-13-26-20-15-11-31-20-48-27-19-9-39-11-60-7-9 2-16 5-23 12-3 3-6 6-9 8-4 4-8 7-12 11z m-4-601c0 12-1 21-5 33-6 20-16 38-28 55-10 15-20 29-31 43-10 13-20 27-28 41-8 14-16 27-24 40-9 14-21 24-36 32-8 4-16 4-25 1-14-5-21-15-23-29-1-4-1-7-3-11-1-3-3-5-6-6-6-2-12-4-18-4-7-1-13 0-19-1-8 0-16-1-23-2-5-1-9-4-12-8-7-11-10-23-7-36 1-10 3-20 5-29 4-21 1-40-10-58-3-5-5-9-8-14-2-5-3-10-4-14-2-5 0-9 3-12 3-4 7-6 12-8 10-5 22-8 33-10 11-2 23-3 34-5 28-6 56-15 83-24 21-7 42-14 63-21 6-2 13-4 20-3 16 1 30 7 42 18 13 12 15 14 15 32z m437 217c-6 1-10-1-14-5-4-4-8-8-12-12-5-4-8-9-13-13-4-4-9-8-13-12-7-5-15-8-23-10-7-2-15-1-22-1-19 3-33 12-40 30-3 8-5 16-8 25-1 2-2 4-4 5-1 1-2 2-3 3-9 6-20 4-25-5-2-3-4-7-5-12-3-9-3-18-3-27 0-31-1-61 0-92 0-12-2-24-4-36-2-10-3-20-3-31 0-2 0-4 0-7l-6-30c0-2-1-4 1-6 12-21 30-33 54-35 10-1 19 0 29 3 6 2 13 4 19 9 2 1 4 3 7 5 3 2 7 4 11 7 9 8 19 16 28 24 10 9 21 18 31 27 14 11 29 19 45 27 10 6 20 11 31 14 6 2 11 5 16 9 1 1 2 1 3 2 8 13 8 25-3 37-7 6-15 11-23 15-3 1-6 2-8 3-12 8-22 18-27 31-3 8-6 16-7 24-1 9-4 18-6 27-1 3-2 5-3 7z m-274 435c-2-1-3-2-4-2-6-4-12-9-19-13-17-10-34-19-53-24-14-4-28-5-42-3-17 3-32 11-45 21-2 1-3 2-4 2 1-5 4-10 7-14 8-8 16-16 25-23 16-15 36-20 58-15 13 3 26 9 38 16 19 13 38 25 57 38 6 4 11 10 13 18 2 4 3 9-2 13-5 4-9 8-13 10-7 3-14 7-21 9-14 5-27 10-40 15-8 3-17 6-26 9-14 4-28 3-40-3-9-5-18-9-26-13-10-6-19-12-26-21-3-3-5-7-7-11-3-4-4-9 1-13 1-1 1-3 2-4 1-1 2-3 3-3 9-8 18-14 28-19 13-5 25-8 39-6 12 1 24 5 35 10 19 9 37 20 54 33 1 1 2 1 4 3l0-6 4-4z m16 30c1 5 2 10 3 15 3 17 5 33 3 50-1 8-3 16-7 23-2 3-3 5-5 7-16 14-42 14-59 1-1 0-1 0-1-1-5-6-9-12-10-20-1-16 2-31 8-45 2-4 6-6 10-6-1 3-1 6-2 9 0 6 0 12 0 18 1 5 2 11 5 16 6 7 13 12 22 12 10 0 17-7 23-13 0-1 0-1 1-2 1-4 3-8 4-13 2-7 2-14 1-21-2-9-7-16-16-19-1-1-1-1-2-2 1-2 3-2 5-3 5 0 8-1 12-4 1 0 3-1 5-2z m116-215c-3-3-3-3-3-7 2 0 3-1 5-2 17-8 30-21 38-39 12-26 14-53 12-81-2-21-7-41-15-61 0-2-2-4-4-5-15-7-25-20-33-34-1-2-1-4 1-5 2-2 3 0 4 2 5 6 11 12 16 18 6 7 15 11 24 13 7 1 14 0 21 0 14-1 28-5 40-11 6-2 11-6 14-11 3-6 8-10 10-16 0-2 2-3 3-2 1 0 2 2 2 3 0 6-2 12-6 17-6 9-14 16-24 20-14 6-28 8-42 9-4 0-9 0-14 1 1 2 1 4 2 6 10 32 14 65 10 99-2 24-11 45-26 63-9 11-20 20-35 23z m-251 245c1 0 2 0 2 0 1 3 4 6 4 10-1 9 0 18-1 27-1 11-7 20-16 27-11 9-30 6-38-9-8-16-11-33-8-50 1-13 8-23 17-32 3 2 6 4 9 6l-4 3c-5 4-8 8-10 14-3 10-3 19-1 29 1 7 5 13 11 17 12 9 22 2 28-7 2-7 4-15 6-22 1-4 1-9 1-13z m102 35c1-2 3-5 5-6 4-1 7-4 8-8 2-3 2-5 3-8h5c0 3-1 6-1 9 0 8-5 12-10 16-2 1-4 1-5 0-2-1-3-2-5-3z m-113-22c0 8-1 14-5 20-3 4-6 6-11 6l1-1-3-4-1 1v-6h9c1-5 3-11 4-16l6 0z" />
<glyph glyph-name="paper-plane" horiz-adv-x="1000" unicode="&#xefb4;" d="M923 627c-281-59-559-117-839-176-14-3-23-7-21-8 1-2 2-3 4-4 62-48 124-96 187-145 5-4 7-8 7-15 0-66 0-132 0-197v-7c0-4 9-1 20 7 41 26 110 72 150 98 46-32 91-65 137-98 11-8 26-5 34 7 110 174 221 347 332 522 8 12 3 19-11 16z m-97-75c-7-4-13-8-20-13-140-89-280-178-419-268-7-4-12-9-16-16-23-38-45-76-67-114-1-2-2-3-3-4-2-3-3 6-3 20v76c0 20 0 40 0 60 0 7 2 10 8 13 77 37 153 74 230 112 100 48 200 97 300 145 1 1 3 1 5 2 2 0-4-6-15-13z" />
<glyph glyph-name="question" horiz-adv-x="1000" unicode="&#xefcc;" d="M406 400c19 3 38 8 58 14 20 6 39 14 55 25s31 23 42 39c11 16 16 35 16 59 0 34-12 60-37 79s-58 27-99 27c-17 0-32-1-45-2-14-1-26-3-37-6-11-3-23-6-35-10-11-3-24-8-36-12-12 21-21 42-28 65-7 22-12 46-13 70 21 7 40 13 58 19 17 5 35 9 51 12 18 3 34 6 51 7 17 1 35 2 55 2 96 0 169-22 218-66 49-44 74-104 74-181 0-37-8-70-22-97-14-28-32-51-53-70-20-19-41-34-63-46-22-11-39-20-53-26v-109c-28-5-55-8-81-8-26 0-52 3-76 8l0 207z m-12-480c-5 30-7 59-7 88s2 59 7 89c30 5 59 8 88 8 29 0 59-3 89-8 5-30 8-60 8-88 0-30-3-59-8-89-30-5-59-8-88-8-29 0-59 3-89 8z" />
<glyph glyph-name="paragraph" horiz-adv-x="1000" unicode="&#xedfb;" d="M533 269v-397c0-19-2-22-21-22-43 0-87 0-130 0-15 0-19 5-19 19 0 114 0 229 0 343 0 10-1 14-13 16-137 16-247 124-269 261-24 151 69 301 213 346 36 11 73 15 110 15l494 0c22 0 24-2 24-24 0-42 0-85 0-128 0-16-3-18-18-18-33-1-66-1-99 0-9 0-11-3-11-12 1-91 0-181 0-272 0-115 0-229 1-344 0-60 0-120 0-180 0-19-4-22-23-22-43 0-86 0-129 0-14 0-19 4-19 19 0 118 0 236 0 353v415c0 12 0 23 0 35 0 6-2 8-8 8-24-1-48-1-72 0-8 0-11-2-11-11 1-82 0-165 0-247 0-51 0-102 0-153z" />
<glyph glyph-name="book-mark" horiz-adv-x="1000" unicode="&#xeec0;" d="M231 766v-842c0-12 7-15 15-7l240 247c8 8 21 8 29 0l240-247c8-8 15-5 15 7v842c0 12-10 22-21 22h-497c-12 0-21-10-21-22z" />
<glyph glyph-name="rounded-down" horiz-adv-x="1000" unicode="&#xea99;" d="M786 430l-251-251c-10-9-22-14-35-14s-25 5-34 14l-251 251c-20 19-20 50 0 69l21 22c19 19 50 19 69 0l161-160c9-10 22-14 34-14s25 4 35 14l160 160c19 19 50 19 69 0l22-22c19-19 19-50 0-69z" />
<glyph glyph-name="plus" horiz-adv-x="1000" unicode="&#xefc2;" d="M935 390c-1 15-3 30-6 46h-343v343c-16 3-31 5-44 7-13 1-26 2-39 2-15 0-29-1-43-2-14-1-30-4-46-7v-343h-343c-3-16-6-31-7-44-1-13-2-25-2-38 0-16 1-30 2-44 1-14 4-29 7-45h343v-344c16-3 31-6 44-7 13-1 26-1 39-1 15 0 29 0 43 1 14 1 29 4 46 7v344h343c3 16 5 30 6 43 2 13 2 26 2 39 1 15 0 29-2 43z" />
<glyph glyph-name="minus" horiz-adv-x="1000" unicode="&#xef9a;" d="M794 409c2-11 4-22 5-31 1-10 1-20 1-30 0-9 0-18-1-27-1-9-3-19-5-30h-588c-2 11-4 22-5 31-1 10-1 20-1 30 0 9 0 18 1 27 1 9 3 19 5 30h588z" />
<glyph glyph-name="edit" horiz-adv-x="1000" unicode="&#xef10;" d="M934 468c-1-1-2-2-3-2-44-45-88-89-132-134-4-4-6-11-6-17-1-81-1-161-1-241v-8c0-4-6-7-14-7h-554c-8 0-15 6-15 14v555c0 8 4 14 8 14h8c80 0 159 0 239 1 7 0 16 3 21 8 43 42 84 84 126 126 2 2 3 3 5 5 2 3-2 5-10 5h-529c-8 0-14-6-14-14v-846c0-8 6-14 14-14h846c8 0 15 6 15 14v529c0 8-2 14-4 12z m-597-105v-162c0-8 7-14 15-14h161c8 0 19 4 24 10 129 129 259 259 388 388 6 6 6 15 0 20l-169 170c-6 6-15 6-21 0-129-129-259-259-388-388-5-5-10-16-10-24z" />
<glyph glyph-name="ui-delete" horiz-adv-x="1000" unicode="&#xec53;" d="M800 573c-98 0-195 0-292 0-103 0-206 1-309 0-52-1-64-14-57-65 27-198 55-396 84-594 7-53 20-64 74-64 138 0 276 0 415 0 59 0 72 15 79 73 23 190 47 381 71 570 9 66 0 79-65 80z m-454-618c-33-5-46 22-49 51-17 137-32 274-48 411-3 27 5 50 33 55 32 5 47-17 50-45 11-81 20-162 30-243 7-56 13-112 19-168 3-29-1-57-35-61z m201 51c0-28-12-53-42-52-33 0-42 26-42 56 1 68 0 136 0 203h-1c0 68 1 135 0 203 0 29 5 57 39 59 35 1 45-26 45-55 1-138 1-276 1-414z m217 407c-17-137-34-274-52-410-3-28-18-52-48-47-33 4-39 31-34 61 9 67 16 134 25 201s17 134 25 201c4 29 12 56 47 54 34-3 40-31 37-60z m-339 351c16 83 25 92 81 83 96-15 99-18 86-111 74-13 148-27 223-39 32-5 61-13 56-53-6-42-41-37-70-32-172 29-344 59-516 89-37 6-75 14-112 19-30 5-48 20-43 51 6 32 30 39 58 34 79-14 158-28 237-41z" />
</font>
</defs>
</svg>
